Jim Ferguson - Deep Summer Music (2000) SACD ISO + Hi-Res FLAC

Posted By: HDAtall
Jim Ferguson - Deep Summer Music (2000) SACD ISO + Hi-Res FLAC

Jim Ferguson - Deep Summer Music (2000)
SACD ISO | DSD64 2.0 > 1-bit/2.8224 MHz | 65:29 minutes | Covers included | 1,99 GB
or FLAC(converted with foobar2000 to tracks) 24bit/88,2 kHz | Covers included | 1,27 GB

Bassist Jim Ferguson does something on Deep Summer Music and his 1999 debut, Not Just Another Pretty Bass, that few on his instrument can muster. And it's so simple, so dynamic. He sings. Well, he not only sings, but he offers up a pliable voice that can wrap around a lyric like a hug (try the lovely title tune here), and then morph into a playful, sardonic, jab-rich vehicle that shows off how much style he has. With Chris Potter by his side again on Summer, Ferguson shows clearly that he's no singer handling a bass. He plays his big axe with all the same flexibility, using a singing note-hold that bends around the melodies sweetly, and then a thumping rhythmic bounce that accentuates how groovy a cat Ferguson is. "What's A Guy Supposed to Do?" sounds as humorously exasperated as Mose Allison. The comparison to Mose is apt, for Ferguson has that same slight drawl and crisp funkiness. And he has a vocal range that can bellow near a baritone and still have some grit at the bottom to keep things textured smartly. A most important follow-up to Ferguson's auspicious debut.

Regrettably, male vocalists have become a minority in the jazz world. For every talented male jazz singer who emerged in the 1980s or 1990s (Kurt Elling, Kevin Mahogany, Lou Lanza, Giacomo Gates, Allan Harris, among others), there were countless female singers. So whenever a male jazz vocalist records a CD, one tends to sit up and take notice. Jim Ferguson's Deep Summer Music should please those who complain that jazz doesn't have enough male singers anymore. Much to his credit, the Nashville resident is a clone of no one. Ferguson is no innovator, but he is a recognizable singer who can be sweetly introspective one minute and bluesy the next. On funky, bluesy selections like "What's a Guy Supposed to Do?" and "Walkin' the Dog" (both Ferguson originals), he hints at Mose Allison without actually emulating him. But most of the time, Ferguson favors vulnerable, introspective torch singing; Chet Baker and Mel Torm̩ are noticeable influences on "The Night We Called It a Day," "There'll Be Other Times," and other smoky ballads. Not that he actually tries to sound like Baker, Torm̩, or anyone else Рagain, Ferguson is his own man. Joined by Chris Potter on tenor sax, Stefan Karlsson on piano, and Jim White on drums, Ferguson accompanies himself on upright bass Рsomething that is unusual for a jazz singer. And the southerner is also unusual in that he has paid the bills by accompanying a major country-pop star: Crystal Gayle. Some myopic, knee-jerk bop snobs might have a hard time believing that a man who plays country-pop can also embrace jazz, but such thinking is nothing more than silly, mindless elitism. If anything, backing Gayle has made Ferguson a more effective jazz improviser because it has forced him to spend a lot of time focusing on feeling and emotion instead of always worrying about technique. While other jazz singers are trying to impress you with how fast they can scat their way through John Coltrane's "Giant Steps," Ferguson makes feeling his top priority on this soulful, if derivative, release.

Tracklist:

01. Deep Summer Music
02. What's A Guy Supposed To Do?
03. I'll Only Miss Her When I Think Of Her
04. Wait Till You See Her
05. There'll Be Other Times
06. Walkin' The Dog
07. Slow Hot Wind
08. The Night We Called It A Day
09. Come Home To Red
10. Then I'll Be Tired Of You
11. When The Night Is Done
12. Nobody Home
13. When Your Lover Has Gone
14. In The Wee Small Hours Of The Morning

foobar2000 1.3.14 / Dynamic Range Meter 1.1.1

––––––––––––––––––––––––––––––––––––––––
Analyzed: Jim Ferguson / Deep Summer Music
––––––––––––––––––––––––––––––––––––––––

DR Peak RMS Duration Track
––––––––––––––––––––––––––––––––––––––––
DR13 -7.38 dB -24.44 dB 5:39 01-Deep Summer Music
DR13 -6.00 dB -22.49 dB 4:54 02-What's A Guy Supposed To Do?
DR13 -6.52 dB -23.94 dB 5:23 03-I'll Only Miss Her When I Think Of Her
DR12 -7.11 dB -23.01 dB 3:22 04-Wait Till You See Her
DR13 -7.14 dB -24.73 dB 5:26 05-There'll Be Other Times
DR13 -9.85 dB -24.99 dB 4:01 06-Walkin' The Dog
DR13 -6.46 dB -25.10 dB 4:34 07-Slow Hot Wind
DR14 -6.17 dB -24.47 dB 6:00 08-The Night We Called It A Day
DR11 -7.22 dB -22.29 dB 3:58 09-Come Home To Red
DR13 -6.50 dB -24.31 dB 5:15 10-Then I'll Be Tired Of You
DR13 -5.00 dB -22.40 dB 3:05 11-When The Night Is Done
DR12 -8.83 dB -24.92 dB 5:08 12-Nobody Home
DR11 -6.04 dB -21.47 dB 5:26 13-When Your Lover Has Gone
DR13 -6.89 dB -24.72 dB 3:17 14-In The Wee Small Hours Of The Morning
––––––––––––––––––––––––––––––––––––––––

Number of tracks: 14
Official DR value: DR13

Samplerate: 2822400 Hz / PCM Samplerate: 176400 Hz
Channels: 2
Bits per sample: 1
Bitrate: 5645 kbps
Codec: DSD64


Thanks to tymoxa!
Uncompressed SACD ISO size > 2,63 GB