Subcategories

Jimi Hendrix - Are You Experienced - (1967) - Vinyl - {German Box Set LP 1 of 11} 24-Bit/96kHz + 16-Bit/44kHz

Posted By: vinylhound
Jimi Hendrix - Are You Experienced - (1967) - Vinyl - {German Box Set LP 1 of 11} 24-Bit/96kHz + 16-Bit/44kHz

Jimi Hendrix - Are You Experienced (1967)
vinyl rip in 24/96 & 16/44.1 | 865 MB & 245 MB | FLAC | no cue or log (vinyl)
DR Analysis | FSonic & FF | Full LP Artwork | German Box Set LP 1 of 11
Genre: Rock | Polydor Records ~ 2625 038

This box set was released in Germany to commemorate the tenth anniversary of the death of Jimi Hendrix. It contains the European versions of "Are You Experienced", "Axis: Bold As Love", "Electric Ladyland", "Band Of Gypsys", "Isle Of Wight", "The Cry Of Love", "In The West", "War Heroes", "Loose Ends", "Midnight Lightning", & "Crash Landing" plus a 12" single of "Gloria" b/w "Hey Joe". Part 1 of 11 includes the 12" single & "Are You Experienced" Are You Experienced is the debut album by Jimi Hendrix. Released in 1967. The album highlighted Jimi Hendrix's R&B-based, psychedelic, distortion-and feedback-laden electric guitar playing and launched him as a major new international star. Are You Experienced has remained a critical and commercial success since its release. The album reached number 2 in the United Kingdom, behind The Beatles' Sgt. Pepper's Lonely Hearts Club Band. In 2003, Rolling Stone magazine ranked it #15 on Rolling Stone's 500 Greatest Albums of All Time. The album was an instant success and was a best-selling album in the United States in 1968 and critics subsequently regarded it as one of the best rock albums of all time.

Jimi Hendrix - Are You Experienced - (1967) - Vinyl - {German Box Set LP 1 of 11} 24-Bit/96kHz + 16-Bit/44kHz


Track Listing

Album


Side 1

1. Foxy Lady
2. Manic Depression
3. Red House
4. Can You See Me
5. Love Or Confusion
6. I Don't Live Today

Side 2

1. May This Be Love
2. Fire
3. 3rd Stone From The Sun
4. Remember
5. Are You Experienced?

Bonus Single

Side 1

Gloria (Live)

Side 2

Hey Joe


Musicians:

Jimi Hendrix: lead vocals, guitar, backing vocals on track 1, handclaps on track 6, voice of "Star Fleet" on track 9, piano on track 11
Noel Redding: bass, backing vocals on tracks 1, 8 and 14
Mitch Mitchell: drums, tambourine on tracks 4, 7, 10 and 13, backing vocals on track 6, cowbell on track 13



Technics SL-1200MK2 Turntable
Shure V15VxMR Cartridge
LP Gear SHVN5xMR Super Analogue Stylus
Sonic Bliss Audiophile Turntable Mat
Custom built, all tube phono stage
Creative 0404 USB @ 24 bit / 96khz
Adobe Audition 3.0 for recording software
JBL LSR series studio monitors / subwoofer for playback listening
iZotope RX Advanced 2.02 for any cleaning needed (all done manually)
Adobe Photoshop for scans
mp3tag 2.49 for file tagging
Easy CD-DA Extractor Ultimate 10 v2011.3 for converting files



––––––––––––––––––––––––––––––––––––––––
Analyzed: Jimi Hendrix / Are You Experienced
––––––––––––––––––––––––––––––––––––––––

DR Peak RMS Duration Track
––––––––––––––––––––––––––––––––––––––––
DR11 -0.23 dB -13.13 dB 3:17 01-Foxy Lady
DR10 -0.84 dB -13.09 dB 3:40 02-Manic Depression
DR11 -1.76 dB -14.98 dB 3:51 03-Red House
DR11 -0.72 dB -14.91 dB 2:34 04-Can You See Me
DR8 -1.02 dB -10.57 dB 3:12 05-Love Or Confusion
DR9 -1.31 dB -13.19 dB 3:53 06-I Don't Live Today
DR10 -1.40 dB -15.37 dB 3:09 07-May This Be Love
DR10 -0.78 dB -14.15 dB 2:41 08-Fire
DR10 -0.85 dB -14.46 dB 6:41 09-3rd Stone From The Sun
DR12 -0.96 dB -15.56 dB 2:50 10-Remember
DR10 -0.88 dB -13.03 dB 4:10 11-Are You Experienced?
DR11 -0.05 dB -13.83 dB 8:48 01-Gloria
DR9 -0.05 dB -11.30 dB 3:22 02-Hey Joe
––––––––––––––––––––––––––––––––––––––––

Number of tracks: 11
Official DR value: DR10

Samplerate: 96000 Hz
Channels: 2
Bits per sample: 24
Bitrate: 2994 kbps
Codec: FLAC

Jimi Hendrix - Are You Experienced - (1967) - Vinyl - {German Box Set LP 1 of 11} 24-Bit/96kHz + 16-Bit/44kHz


The files are interchangeable!!!

Please enjoy hearing Are You Experienced as it should be heard on vinyl!!!
Download

FileSonic

FileFactory

Password

vinyl