Jimi Hendrix Experience - Electric Ladyland (50th Anniversary Vinyl Box Set) (1968/2018) [24bit/96kHz]

Posted By: delpotro
Jimi Hendrix Experience - Electric Ladyland (50th Anniversary Vinyl Box Set) (1968/2018) [24bit/96kHz]

Jimi Hendrix Experience - Electric Ladyland (50th Anniversary Vinyl Box Set) (1968/2018)
Vinyl Rip | FLAC (tracks) 24-bit/96 kHz | Time - 221:53 minutes | 4,43 GB | Artwork - 9 MB
Blues Rock, Psychedelic Rock | Label: Legacy Recordings

In celebration of the 50th anniversary of the release of the Jimi Hendrix Experience masterpiece Electric Ladyland, Experience Hendrix, L.L.C. and Legacy Recordings, the catalog division of Sony Music Entertainment, are releasing the Deluxe Edition box set on November 9. Available as either a 3CD/1 Blu-ray set or a 6LP/1 Blu-ray set, both packages include the original double album, now newly remastered by Bernie Grundman from the original analog tapes. For the LP set, Grundman prepared an all analog direct to disc vinyl transfer of the album, preserving the authenticity. Also included is Electric Ladyland: The Early Takes, which presents demos and studio outtakes from this period in Hendrix’s career, plus a new 5.1 surround sound mix of the entire original album by Hendrix’s original engineer Eddie Kramer. This marks the first and only time this has been done with a Hendrix studio album, and gives listeners the original stereo mixes in uncompressed 24 bit/96 kz high resolution audio.

The second CD (or the next two LPs for the vinyl box) feature ‘More Electric Ladyland: The Early Takes’ which presents 20 never before heard demos and studio outtakes. Some of these are intimate demos for song ideas Hendrix recorded himself on a reel-to-reel tape at the Drake Hotel, as well as early recording session takes featuring guest appearances from Buddy Miles, Stephen Stills and Al Kooper.

The final two LPs (or the last CD) feature ‘The Jimi Hendrix Experience: Live At the Hollywood Bowl 9/14/68‘. This is a ‘recently unearthed’ soundboard recording of the concert that took place just weeks before the release of Electric Ladyland.

Tracklist:
Disc 1: Electric Ladyland (01:15:33)
1. … And the Gods Made Love (01:22)
2. Have You Ever Been (to Electric Ladyland) (02:10)
3. Crosstown Traffic (02:26)
4. Voodoo Chile (15:02)
5. Little Miss Strange (02:52)
6. Long Hot Summer Night (03:27)
7. Come On (Let the Good Times Roll) (04:10)
8. Gypsy Eyes (03:45)
9. Burning of the Midnight Lamp (03:41)
10. Rainy Day, Dream Away (03:41)
11. 1983… (A Merman Should I Turn to Be) (13:41)
12. Moon, Turn the Tides… Gently Gently Away (01:03)
13. Still Raining, Still Dreaming (04:26)
14. House Burning Down (04:33)
15. All Along the Watchtower (04:01)
16. Voodoo Child (slight return) (05:13)

Disc 2: At Last: The Beginning – The Making of Electric Ladyland (01:18:11)
1. 1983… (A Merman Should I Turn to Be) (07:48)
2. Angel (03:21)
3. Cherokee Mist (03:15)
4. Hear My Train a Comin’ (01:21)
5. Voodoo Chile (10:05)
6. Gypsy Eyes (03:02)
7. Somewhere (01:50)
8. Long Hot Summer Night (demo 1) (02:09)
9. Long Hot Summer Night (demo 3) (02:05)
10. Long Hot Summer Night (demo 4) (01:53)
11. Snowballs at My Window (00:45)
12. My Friend (04:11)
13. And the Gods Made Love (At Last… The Beginning) (01:36)
14. Angel Caterina (04:59)
15. Little Miss Strange (03:30)
16. Long Hot Summer Night (take 1) (03:55)
17. Long Hot Summer Night (take 14) (04:15)
18. Rainy Day, Dream Away (04:37)
19. Rainy Day Shuffle (03:13)
20. 1983… (A Merman Should I Turn to Be) (10:21)

Disc 3: Live at the Hollywood Bowl (01:08:12)
1. Introduction (live at the Hollywood Bowl) (03:45)
2. Are You Experienced? (live at the Hollywood Bowl) (09:56)
3. Voodoo Child (slight return, live at the Hollywood Bowl) (07:59)
4. Red House (live at the Hollywood Bowl) (11:55)
5. Foxey Lady (live at the Hollywood Bowl) (02:42)
6. Fire (live at the Hollywood Bowl) (01:42)
7. Hey Joe (live at the Hollywood Bowl) (05:27)
8. Sunshine of Your Love (live at the Hollywood Bowl) (07:14)
9. I Don’t Live Today (live at the Hollywood Bowl) (05:11)
10. Little Wing (live at the Hollywood Bowl) (04:22)
11. Star Spangled Banner (live at the Hollywood Bowl) (03:26)
12. Purple Haze (live at the Hollywood Bowl) (04:33)

foobar2000 1.4.1 / Dynamic Range Meter 1.1.1
log date: 2020-06-06 04:46:55

––––––––––––––––––––––––––––––––––––––––
Analyzed: Jimi Hendrix / Electric Ladyland [50th Anniversary Electric Ladyland Vinyl Box Set]
––––––––––––––––––––––––––––––––––––––––

DR Peak RMS Duration Track
––––––––––––––––––––––––––––––––––––––––
DR11 -3.09 dB -20.56 dB 1:22 01-And The Gods Made Love
DR10 -3.41 dB -15.82 dB 2:10 02-Have You Ever Been (To Electric Ladyland)
DR10 -2.17 dB -14.65 dB 2:26 03-Crosstown Traffic
DR11 -0.49 dB -13.91 dB 15:00 04-Voodoo Chile
DR11 -1.65 dB -14.99 dB 2:52 05-Little Miss Strange
DR11 -2.86 dB -15.66 dB 3:27 06-Long Hot Summer Night
DR11 -0.40 dB -14.32 dB 4:09 07-Come On (Let the Good Times Roll)
DR11 -2.44 dB -15.51 dB 3:44 08-Gypsy Eyes
DR9 -3.81 dB -14.74 dB 3:41 09-Burning Of The Midnight Lamp
DR12 -1.09 dB -15.75 dB 3:40 10-Rainy Day, Dream Away
DR12 -0.40 dB -16.66 dB 13:39 11-1983 (A Merman I Should Turn to Be)
DR12 -4.94 dB -25.20 dB 1:04 12-Moon, Turn The Tides…Gently, Gently Away
DR12 -0.43 dB -14.82 dB 4:25 13-Still Raining, Still Dreaming
DR10 -3.89 dB -16.51 dB 4:32 14-House Burning Down
DR10 -3.10 dB -15.47 dB 4:00 15-All Along The Watchtower
DR11 -2.17 dB -16.52 dB 5:14 16-Voodoo Child (Slight Return)
––––––––––––––––––––––––––––––––––––––––

Number of tracks: 16
Official DR value: DR11

Samplerate: 96000 Hz
Channels: 2
Bits per sample: 24
Bitrate: 2878 kbps
Codec: FLAC
================================================================================

foobar2000 1.4.1 / Dynamic Range Meter 1.1.1
log date: 2020-06-06 04:48:20

––––––––––––––––––––––––––––––––––––––––
Analyzed: Jimi Hendrix / At Last…The Beginning [50th Anniversary Electric Ladyland Vinyl Box Set]
––––––––––––––––––––––––––––––––––––––––

DR Peak RMS Duration Track
––––––––––––––––––––––––––––––––––––––––
DR13 -0.56 dB -18.37 dB 7:44 01-1983 (A Merman I Should Turn To Be) [demo]
DR12 -1.43 dB -17.24 dB 10:05 02-Voodoo Chile [demo]
DR14 -1.05 dB -18.71 dB 3:21 03-Cherokee Mist
DR14 -0.71 dB -20.48 dB 1:19 04-Hear My Train A Comin' [demo]
DR13 -0.41 dB -18.90 dB 3:22 05-Angel [demo]
DR11 -1.10 dB -15.19 dB 2:24 06-Gypsy Eyes [demo]
DR13 -2.43 dB -18.72 dB 2:29 07-Somewhere [demo]
DR12 -1.00 dB -18.03 dB 2:06 08-Long Hot Summer Night [demo 1]
DR13 -1.88 dB -18.41 dB 2:06 09-Long Hot Summer Night [demo 2]
DR9 -5.54 dB -18.41 dB 1:53 10-Long Hot Summer Night [demo 4]
DR9 -4.14 dB -18.73 dB 0:47 11-Snowballs At My Window [demo]
DR11 -3.19 dB -19.15 dB 4:14 12-My Friend [demo]
DR12 -4.05 dB -22.40 dB 1:37 13-And The Gods Made Love (At Last…The Beginning)
DR11 -0.38 dB -13.37 dB 4:59 14-Angel Caterina
DR12 -0.11 dB -13.44 dB 3:30 15-Little Miss Strange
DR11 -1.40 dB -14.84 dB 3:54 16-Long Hot Summer Night [take 1]
DR11 -1.66 dB -13.74 dB 4:18 17-Long Hot Summer Night [take 14]
DR11 -1.71 dB -15.25 dB 4:38 18-Rainy Day, Dream Away
DR11 -1.64 dB -14.65 dB 3:13 19-Rainy Day Shuffle
DR11 -1.50 dB -16.28 dB 10:22 20-1983…(A Merman I Should Turn To Be)
––––––––––––––––––––––––––––––––––––––––

Number of tracks: 20
Official DR value: DR12

Samplerate: 96000 Hz
Channels: 2
Bits per sample: 24
Bitrate: 2830 kbps
Codec: FLAC
================================================================================

foobar2000 1.4.1 / Dynamic Range Meter 1.1.1
log date: 2020-06-06 04:49:49

––––––––––––––––––––––––––––––––––––––––
Analyzed: Jimi Hendrix / Live At The Hollywood Bowl [50th Anniversary Electric Ladyland Vinyl Box Set]
––––––––––––––––––––––––––––––––––––––––

DR Peak RMS Duration Track
––––––––––––––––––––––––––––––––––––––––
DR9 -0.40 dB -15.53 dB 4:01 01-Introduction
DR7 -1.32 dB -11.03 dB 9:38 02-Are You Experienced?
DR9 -1.18 dB -11.76 dB 8:00 03-Voodoo Child (Slight Return)
DR8 -1.17 dB -11.33 dB 11:57 04-Red House
DR10 -0.69 dB -11.47 dB 2:37 05-Foxey Lady
DR9 -0.94 dB -13.19 dB 1:46 06-Fire
DR10 -0.85 dB -12.55 dB 5:27 07-Hey Joe
DR9 -1.20 dB -11.76 dB 7:13 08-Sunshine Of Your Love
DR10 -0.40 dB -11.45 dB 5:12 09-I Don't Live Today
DR9 -1.17 dB -11.95 dB 4:32 10-Little Wing
DR9 -1.81 dB -11.97 dB 3:15 11-Star Spangled Banner
DR9 -1.04 dB -11.60 dB 4:33 12-Purple Haze
––––––––––––––––––––––––––––––––––––––––

Number of tracks: 12
Official DR value: DR9

Samplerate: 96000 Hz
Channels: 2
Bits per sample: 24
Bitrate: 2940 kbps
Codec: FLAC
================================================================================


Spin Clean II RCM prewash
VPI 16.5 RCM with three-step Audio Intelligent Vinyl Solutions fluids (if needed)
Klaudio Ultrasonic RCM final cleaning
Milty Zerostat 3
VPI Classic 3 / Ortofon 2M Black cartridge with HRX center weight and periphery ring clamp
Lounge LCRMKIII phono stage
Sweet Vinyl SugarCube SC-1 hardware noise removal system
McIntosh MA6850 integrated amp
Apogee Quartet audio interface
Sennheiser HD-700 headphones
BlueSky eXo 2.1 studio monitor system
2017 4.2ghz Intel i7 27” iMac
Adobe Audition CS 2018
FLAC encoded with XLD
Epson 12000XL-GA large-format scanner
Adobe Photoshop / Adobe Acrobat

Thanks to the Original customer!