Jimmy Smith - The Cat (1964) [Japanese Limited SHM-SACD 2014] PS3 ISO + Hi-Res FLAC

Posted By: HDAtall
Jimmy Smith - The Cat (1964) [Japanese Limited SHM-SACD 2014] PS3 ISO + Hi-Res FLAC

Jimmy Smith - The Cat (1964) [Japanese Limited SHM-SACD 2014]
PS3 Rip | SACD ISO | DSD64 2.0 > 1-bit/2.8224 MHz | 32:57 minutes | Scans included | 1021 MB
or FLAC (converted with foobar2000 to tracks) 24bit/96 kHz | Full Scans included | 823 MB

The Cat is a 1964 album by Jimmy Smith. It features the sound of Smith's Hammond B-3 organ with big band arrangements by composer Lalo Schifrin. The album reached number 12 on the Billboard 200 chart. The track "The Cat" has been sampled by Pizzicato 5 "Twiggy Twiggy" and The Orb "Perpetual Dawn (Ultrabass 2)".

Compared to his earlier Blue Note recordings, organist Jimmy Smith's outings for Verve are not as strong from a jazz standpoint. Certainly his renditions of the "Theme from Joy House," "The Cat" and the "Main Title from The Carpetbaggers" are not all that significant. However, this disc has some tasteful arrangements for the big band by Lalo Schifrin and some good playing by the great organist on a variety of other blues-oriented material. Also the combination of organ with a big band is sometimes quite appealing, making this album worth picking up despite its commercial tracks.

Tracklist:

01. Theme From "Joy House"
02. The Cat (From "Joy House")
03. Basin Street Blues
04. Main Title Form "The Carpetbaggers"
05. Chicago Serenade
06. St. Louis Blues
07. Delon's Blues
08. Blues In The Night

Recorded on April 27-29, 1964 at Van Gelder Studio, Englewood, NJ.

foobar2000 1.4.8 / Dynamic Range Meter 1.1.1

––––––––––––––––––––––––––––––––––––––––
Analyzed: Jimmy Smith / The Cat
––––––––––––––––––––––––––––––––––––––––

DR Peak RMS Duration Track
––––––––––––––––––––––––––––––––––––––––
DR11 -8.64 dB -22.44 dB 4:40 01-Theme From "Joy House"
DR11 -7.16 dB -21.03 dB 3:27 02-The Cat (From "Joy House")
DR11 -7.48 dB -21.80 dB 4:01 03-Basin Street Blues
DR11 -7.07 dB -22.73 dB 3:59 04-Main Title Form "The Carpetbaggers"
DR11 -8.10 dB -23.80 dB 3:59 05-Chicago Serenade
DR10 -7.22 dB -19.72 dB 3:17 06-St. Louis Blues
DR12 -7.63 dB -23.67 dB 4:48 07-Delon's Blues
DR11 -7.03 dB -22.20 dB 4:45 08-Blues In The Night
––––––––––––––––––––––––––––––––––––––––

Number of tracks: 8
Official DR value: DR11

Samplerate: 2822400 Hz / PCM Samplerate: 176400 Hz
Channels: 2
Bits per sample: 1
Bitrate: 5645 kbps
Codec: DSD64


Thanks to KingCrim!
Uncompressed SACD ISO size > 1,33 GB

Midnight Special (1961) [APO]
Back At The Chicken Shack (1963) [APO]
>