Tags
Language
Tags

Joanna Wang - Start From Here (2008) PS3 ISO + DSD64 + Hi-Res FLAC

Posted By: HDAtall
Joanna Wang - Start From Here (2008) PS3 ISO + DSD64 + Hi-Res FLAC

Joanna Wang - Start From Here (2008)
PS3 Rip | SACD ISO | DST64 2.0 > 1-bit/2.8224 MHz | 74:19 minutes | Scans included | 1,34 GB
or DSD64 2.0 (from SACD-ISO to Tracks.dsf) > 1-bit/2.8224 MHz | Full Scans included | 2,02 GB
or FLAC (carefully converted & encoded to tracks) 24bit/48 kHz | Full Scans included | 956 MB
Folk / Jazz / Pop | Sony Music Taiwan # 88697309282

Joanna Wang (Chinese: 王若琳; pinyin: Wáng Ruòlín) is a Taiwanese singer-songwriter, and her debum album, "Start from Here", received mostly positive reviews and commercial success, with reached No.1 in Taiwan and has been popular throughout Southeast Asia.

SACD-Hybrid pressing of her 2008 debut album from the young Asian singer. Includes 5 additional tracks over the standard English-version. Coming from LA, she has become one of the most talked-about artists on the Asian music scene. Mixing a cool Jazz vibe to Soft Pop, Joanna has been embraced by the critics & fans alike. Features the singles 'Let's Start From Here' & 'Lost In Paradise'.

Tracklist:

01. Let's Start From Here
02. Lost in Paradise
03. As Love Begins to Mend
04. Bada Bada
05. Lost Taipei
06. The Best Mistake I've Ever Made
07. I Love You
08. For No Reason
09. Stages of Flying
10. True
11. New York State of Mind
12. 50 Ways to Leave Your Lover
13. We've Only Just Begun
14. Let's Start From Here (Mandarin version)
15. Lost in Paradise (Mandarin version)
16. As Love Begins to Mend (Mandarin version)
17. For No Reason (Mandarin version)

foobar2000 1.6.6 / Dynamic Range Meter 1.1.1

––––––––––––––––––––––––––––––––––––––––
Analyzed: Joanna Wang / Start From Here
––––––––––––––––––––––––––––––––––––––––

DR Peak RMS Duration Track
––––––––––––––––––––––––––––––––––––––––
DR9 -6.36 dB -17.20 dB 3:39 01-Let's Start From Here
DR12 -4.51 dB -17.45 dB 3:16 02-Lost in Paradise
DR9 -5.29 dB -17.48 dB 5:44 03-As Love Begins to Mend
DR8 -6.25 dB -16.38 dB 3:52 04-Bada Bada
DR10 -4.73 dB -16.75 dB 4:35 05-Lost Taipei
DR9 -5.62 dB -17.70 dB 4:27 06-The Best Mistake I've Ever Made
DR8 -5.72 dB -16.50 dB 5:17 07-I Love You
DR8 -5.47 dB -15.09 dB 4:39 08-For No Reason
DR8 -5.84 dB -17.17 dB 4:02 09-Stages of Flying
DR10 -6.62 dB -18.83 dB 6:06 10-True
DR10 -8.90 dB -22.07 dB 3:29 11-New York State of Mind
DR10 -5.19 dB -18.33 dB 3:21 12-50 Ways to Leave Your Lover
DR14 -4.46 dB -22.23 dB 4:32 13-We've Only Just Begun
DR9 -6.23 dB -17.13 dB 3:36 14-Let's Start From Here (Mandarin)
DR12 -4.73 dB -18.33 dB 3:16 15-Lost in Paradise (Mandarin)
DR9 -5.48 dB -17.70 dB 5:47 16-As Love Begins to Mend (Mandarin)
DR8 -5.61 dB -15.83 dB 4:39 17-For No Reason (Mandarin)
––––––––––––––––––––––––––––––––––––––––

Number of tracks: 17
Official DR value: DR10

Samplerate: 2822400 Hz / PCM Samplerate: 88200 Hz
Channels: 2
Bits per sample: 24
Bitrate: 5645 kbps
Codec: DST64


Thanks to ManWhoCan!
Uncompressed SACD ISO size > 1,22 GB
>