Tags
Language
Tags

Joe Beck and Ali Ryerson - Django (2001) MCH PS3 ISO + DSD64 + Hi-Res FLAC

Posted By: HDAtall
Joe Beck and Ali Ryerson - Django (2001) MCH PS3 ISO + DSD64 + Hi-Res FLAC

Joe Beck & Ali Ryerson - Django (2001)
PS3 Rip | SACD ISO | DST64 2.0 & 5.1 > 1-bit/2.8224 MHz | 55:36 minutes | Scans included | 3,59 GB
or DSD64 2.0 Stereo (from SACD-ISO to Tracks.dsf) > 1-bit/2.8224 MHz | Full Scans included | 1,44 GB
or FLAC 2.0 (carefully converted & encoded to tracks) 24bit/88,2 kHz | Full Scans included | 1,04 GB
DSD Recording | Features Stereo and Multichannel Surround Sound

Joe Beck and Ali Ryerson have been working as a team for more than four years, playing concerts and other gigs under the name Duo. This is their second album, and, with the name Django, one would assume it is in honor of guitarist Django Reinhardt. Instead, the set is dedicated to the members of the Modern Jazz Quartet, who pioneered chamber jazz, the style that dominates this session with flautist Ryerson. John Lewis' "Django" is one of the tunes on the agenda that they play within the chamber style. Ryerson's passion for Brazilian music is documented on her six albums for Concord Jazz. She gets to show her mastery of this tempo on "Carioca Blue" and "O Barquinho." Jazz veteran Joe Beck, one of the first to mix jazz and rock guitar, uses an alto guitar which he invented. It provides a strong harmonically mellow and rhythmic cushion upon which Ryerson carries the melody line with her expressive, buoyant flute. Their mutual comfort is evident on such tunes as the medley "Come Together"/"Alone Together" and expresses itself on a haunting rendition of "Tenderly." If anything, this album is epitomized by some striking improvising. The two generally take one chorus, stating the melody, and then let their collective imagination take over. That they play together rather than separately when they extemporize makes this album distinctive. And they do it successfully whether the tune be one by Miles Davis or Johnny Mercer. With just the two instruments, their inventive way of collaborating makes sure that the listener's attention will not drift away. Recommended.

Tracklist:

01. People Make the World Go 'Round
02. Laura
03. Django
04. Carioca
05. When I Fall In Love
06. Spain
07. Come Together/Alone Together
08. Tenderly
09. Hobo
10. It Takes Two
11. Barquino
12. Nardis
13. Danny Boy

Personnel
Joe Beck - guitar
Ali Ryerson - flute

Recorded by Tom Jung on February 10, 2001 at Ambient Recording, Stamford, CT.
Pure DSD Recording. Mastered by Bob Ludwig at Gateway Mastering.

foobar2000 1.6.6 / Dynamic Range Meter 1.1.1

––––––––––––––––––––––––––––––––––––––––
Analyzed: Joe Beck & Ali Ryerson / DJANGO
––––––––––––––––––––––––––––––––––––––––

DR Peak RMS Duration Track
––––––––––––––––––––––––––––––––––––––––
DR12 -5.52 dB -25.81 dB 5:02 01-People Make the World Go 'Round
DR12 -6.44 dB -27.98 dB 4:35 02-Laura
DR13 -5.78 dB -28.62 dB 4:45 03-Django
DR13 -5.45 dB -27.08 dB 4:12 04-Carioca
DR12 -7.67 dB -28.07 dB 4:56 05-When I Fall In Love
DR12 -5.18 dB -25.01 dB 4:35 06-Spain
DR11 -5.21 dB -23.59 dB 4:20 07-Come Together/Alone Together
DR12 -7.21 dB -28.97 dB 3:51 08-Tenderly
DR12 -5.31 dB -26.16 dB 4:01 09-Hobo
DR12 -5.26 dB -24.96 dB 3:03 10-It Takes Two
DR11 -6.00 dB -25.25 dB 4:52 11-Barquino
DR14 -5.25 dB -26.08 dB 3:47 12-Nardis
DR11 -9.43 dB -27.36 dB 3:36 13-Danny Boy
––––––––––––––––––––––––––––––––––––––––

Number of tracks: 13
Official DR value: DR12

Samplerate: 2822400 Hz / PCM Samplerate: 176400 Hz
Channels: 6
Bits per sample: 1
Bitrate: 16934 kbps
Codec: DST64
================================================================================

––––––––––––––––––––––––––––––––––––––––
Analyzed: Joe Beck & Ali Ryerson / DJANGO
––––––––––––––––––––––––––––––––––––––––

DR Peak RMS Duration Track
––––––––––––––––––––––––––––––––––––––––
DR12 -6.46 dB -22.87 dB 5:02 01-People Make the World Go 'Round
DR13 -8.86 dB -24.37 dB 4:35 02-Laura
DR14 -7.67 dB -24.80 dB 4:45 03-Django
DR12 -8.24 dB -23.30 dB 4:12 04-Carioca
DR12 -9.13 dB -24.84 dB 4:56 05-When I Fall In Love
DR12 -5.83 dB -22.05 dB 4:35 06-Spain
DR12 -5.74 dB -21.00 dB 4:20 07-Come Together/Alone Together
DR13 -9.29 dB -25.67 dB 3:51 08-Tenderly
DR11 -6.96 dB -23.03 dB 4:01 09-Hobo
DR11 -7.48 dB -21.92 dB 3:03 10-It Takes Two
DR10 -9.57 dB -22.47 dB 4:52 11-Barquino
DR13 -7.30 dB -23.24 dB 3:47 12-Nardis
DR12 -8.05 dB -23.60 dB 3:36 13-Danny Boy
––––––––––––––––––––––––––––––––––––––––

Number of tracks: 13
Official DR value: DR12

Samplerate: 2822400 Hz / PCM Samplerate: 176400 Hz
Channels: 2
Bits per sample: 1
Bitrate: 5645 kbps
Codec: DST64


Thanks to ManWhoCan!
Uncompressed SACD ISO size > 3,41 GB
>