Tags
Language
Tags

Joe Farrell - Penny Arcade (1974/2013) [Official Digital Download 24bit/192kHz]

Posted By: HDV
Joe Farrell - Penny Arcade (1974/2013) [Official Digital Download 24bit/192kHz]

Joe Farrell - Penny Arcade (1974/2013)
FLAC (tracks) 24 bit/192 kHz | Time - 36:30 minutes | 1,42 GB
FLAC (tracks) 24 bit/96 kHz | Time - 36:30 minutes | 785 MB
Studio Master, Official Digital Download | Artwork: Front cover

Joe Farrell gained his greatest fame with his popular string of CTI recordings. For this set, he performs three of his originals (none of which caught on), guitarist Joe Beck's "Penny Arcade", and a 13-minute version of Stevie Wonder's "Too High". Farrell is in excellent form, as are keyboardist Herbie Hancock, Beck, bassist Herb Bushler, drummer Steve Gadd and Don Alias on conga. As is true of his other CTI sets, this Joe Farrell effort expertly mixes together some slightly commercial elements and superior recording quality with strong solos.

Penny Arcade showcases Joe Farrell with Herbie Hancock, who featured on Farrell’s previous CTI album Moon Germs and would come back for two numbers on Farrell’s 1978 album Night Dancing, on piano and electric piano, Joe Beck on guitar, Herb Bushler on bass and Steve Gadd, who first played with Farrell on several Gap Magione dates and would go onto play with the saxist on several Chick Corea albums and on Farrell’s La Catedral Y El Toro, on drums . The five-song program includes Joe Beck’s frenetic title song, which was edited for issue as a promotional single, Farrell’s “Hurricane Jane” and “Geo Blue” (all with Farrell on tenor sax), Farrell’s lovely Latinate “Cloud Cream” (with Farrell on flute and Don Alias added on percussion) and the album’s signature piece, a wondrous and definitive 13-minute reading of Stevie Wonder’s “Too High” (featuring Farrell on soprano sax). With great solos by Farrell, Hancock on electric piano and Bushler, “Too High” is not only one of the very best covers of this well-covered gem, it surely ranks as one of CTI’s finest moments. Hancock also solos magnificently on acoustic piano for “Cloud Cream” and on the “Maiden Voyage”-like derivation “Geo Blue.” Beck takes a rockish solo on “Penny Arcade” and beautifully trims “Geo Blue” with a lush solo that is jazzier than anything the guitarist was known to do at the time. Joe Farrell’s playing throughout is superb and reveals, yet again, that he could construct very interesting jazz compositions that inspire notable improvisation. “I Won’t Be Back,” a terrific Joe Beck bossa fusion that features Joe Farrell on flute (quoting “A Love Supreme”!), was recorded during these October 1973 sessions, but appears on Farrell’s next CTI recording, Upon This Rock.

Tracklist:

01 - Penny Arcade
02 - Too High
03 - Hurricane Jane
04 - Cloud Cream
05 - Geo Blue

Produced by Creed Taylor. Engineered by Rudy Van Gelder.
Recorded in October 1973 at Van Gelder Studio in Englewood Cliffs, NJ.

Musicians:
Joe Farrell - tenor & soprano sax, flute, piccolo
Herbie Hancock - piano
Joe Beck - guitar
Herb Bushler – bass
Don Alias - conga
Steve Gadd - drums

Analyzed: Joe Farrell / Penny Arcade
––––––––––––––––––––––––––––––––––––––––

DR Peak RMS Duration Track
––––––––––––––––––––––––––––––––––––––––
DR14 0.00 dB -15.94 dB 4:50 01-Penny Arcade
DR11 0.00 dB -14.03 dB 13:23 02-Too High
DR12 0.00 dB -15.90 dB 4:30 03-Hurricane Jane
DR12 0.00 dB -16.21 dB 6:17 04-Cloud Cream
DR12 0.00 dB -16.76 dB 7:31 05-Geo Blue
––––––––––––––––––––––––––––––––––––––––

Number of tracks: 5
Official DR value: DR12

Samplerate: 192000 Hz
Channels: 2
Bits per sample: 24
Bitrate: 5295 kbps
Codec: FLAC
================================================================================


Thanks to the Original customer!