Tags
Language
Tags

Joe Sample - Voices In The Rain (1981/2015) [Official Digital Download 24bit/192kHz]

Posted By: HDV
Joe Sample - Voices In The Rain (1981/2015) [Official Digital Download 24bit/192kHz]

Joe Sample - Voices In The Rain (1981/2015)
FLAC (tracks) 24 bit/192 kHz | Time - 41:31 minutes | 1,53 GB
FLAC (tracks) 24 bit/96 kHz | Time - 41:31 minutes | 830 MB
Studio Master, Official Digital Download | Artwork: Front cover

One of three best-selling albums recorded by pianist Joe Sample in the late 1970s and early 1980s, this diverse collection of smooth jazz-pop includes vocal numbers by Flora Purim and other singers as well as the final track, an acoustic song entitled "Sonata In Solitude". Sample composed the entire album himself except for one collaboration with lyricist Will Jennings.

There is a fair amount of variety on this reasonably enjoyable but not essential release from keyboardist Joe Sample. Most of the tunes fall into the area of funky crossover with strong melodies, danceable rhythms and few chances taken. Flora Purim takes the vocal on "Shadows" and is joined by two other singers for the spirited "Burnin' Up The Carnival." The acoustic "Sonata In Solitude" has violinist L. Subramaniam, guitarist John Collins and bassist Ray Brown, but that is a one-time departure on what is basically a commercial set geared for radio airplay.

Tracklist:

01 - Voices In The Rain
02 - Burning Up The Carnival
03 - Greener Grass
04 - Eye Of The Hurricane
05 - Dream Of Dreams
06 - Shadows
07 - Sonata In Solitude

Produced by Wilton Felder, Stix Hooper & Joe Sample. Engineered by Greg Venable.
Recorded in 1980 at Britannia Studios, Hollywood, California.

Musicians:
Joe Sample - piano, synthesizer
Dean Parks - guitar
Abraham Laboriel - bass
Stix Hooper - drums
Paulinho da Costa - percusssion

Analyzed: Joe Sample / Voices In The Rain
––––––––––––––––––––––––––––––––––––––––

DR Peak RMS Duration Track
––––––––––––––––––––––––––––––––––––––––
DR15 -1.37 dB -22.01 dB 6:29 01-Voices In The Rain
DR15 -1.66 dB -18.21 dB 7:22 02-Burning Up The Carnival
DR15 -1.81 dB -19.21 dB 5:25 03-Greener Grass
DR14 -1.09 dB -19.98 dB 5:18 04-Eye Of The Hurricane
DR15 -1.80 dB -19.06 dB 4:47 05-Dream Of Dreams
DR14 -3.18 dB -19.89 dB 6:11 06-Shadows
DR15 -2.44 dB -21.24 dB 5:58 07-Sonata In Solitude
––––––––––––––––––––––––––––––––––––––––

Number of tracks: 7
Official DR value: DR15

Samplerate: 192000 Hz
Channels: 2
Bits per sample: 24
Bitrate: 4911 kbps
Codec: FLAC
================================================================================


Thanks to the Original customer!