John Coltrane - Dakar (1963/2016) [Official Digital Download 24bit/192kHz]

Posted By: HDV
John Coltrane - Dakar (1963/2016) [Official Digital Download 24bit/192kHz]

John Coltrane - Dakar (1963/2016)
FLAC (tracks) 24 bit/192 kHz | Time - 39:44 minutes | 1,61 GB
Studio Master, Official Digital Download | Artwork: Digital booklet

"Dakar" was one of the early albums from Prestige on which John Coltrane played. While not the lead musician on the recording, Prestige marketed the album as such due to Coltrane's rapidly-rising fame as a soloist.

This 1957 session, held back until 1963 by John Coltrane's former record company to capitalize on his growing fame and success, occupies a sweet spot in Coltrane's discography. Dakar places him in the context of two other saxophonists, baritone players Cecil Payne and Pepper Adams, along with the all-star rhythm section of Mal Waldron on piano, Doug Watkins on bass and Art Taylor on drums. The title of the album foreshadows the increasingly strong pull the African continent would exert upon Coltrane musically, socially and spiritually from the late 1950s until his death.

Tracklist:

01 - Dakar
02 - Mary's Blues
03 - Route 4
04 - Velvet Scene
05 - Witches Pit
06 - Cat Walk

Produced by Bob Weinstock.
Recorded on April 20, 1957 at Van Gelder Studio, Hackensack, NJ.
Digitally Remastered.

Musicians:
John Coltrane - tenor saxophone
Cecil Payne - baritone saxophone
Pepper Adams - baritone saxophone
Mal Waldron - piano
Doug Watkins - bass
Art Taylor - drums

Analyzed: John Coltrane / Dakar
––––––––––––––––––––––––––––––––––––––––

DR Peak RMS Duration Track
––––––––––––––––––––––––––––––––––––––––
DR10 -0.10 dB -12.92 dB 7:10 01-Dakar
DR10 -0.10 dB -13.07 dB 6:48 02-Mary's Blues
DR10 -0.10 dB -13.10 dB 6:57 03-Route 4
DR12 -0.10 dB -14.38 dB 4:54 04-Velvet Scene
DR10 -0.10 dB -12.51 dB 6:43 05-Witches Pit
DR10 -0.10 dB -12.35 dB 7:12 06-Cat Walk
––––––––––––––––––––––––––––––––––––––––

Number of tracks: 6
Official DR value: DR11

Samplerate: 192000 Hz
Channels: 2
Bits per sample: 24
Bitrate: 5516 kbps
Codec: FLAC
================================================================================


Thanks to the Original customer!