Tags
Language
Tags

John Coltrane - Live At The Village Vanguard Again (1966/2016) [Official Digital Download 24-bit/192kHz]

Posted By: HDV
John Coltrane - Live At The Village Vanguard Again (1966/2016) [Official Digital Download 24-bit/192kHz]

John Coltrane - Live At The Village Vanguard Again! (1966/2016)
FLAC (tracks) 24-bit/192 kHz | Time - 41:40 minutes | 2,05 GB
FLAC (tracks) 24-bit/96 kHz | Time - 41:40 minutes | 1002 MB
Studio Master, Official Digital Download | Artwork: Front cover

John Coltrane recorded his performance at the Village Vanguard in May 1966, however only the three tracks on this album survived. Coltrane himself plays saxes, clarinet and flute, joined on the front line by Pharoah Sanders on tenor saxophone and flute, accompanied by Alice Coltrane's wife Alice on piano, bassist Jimmy Garrison, drummer Rashied Ali and percussionist Emanuel Rahim.

This album was always a bit of a disappointment. John Coltrane plays passionately on "My Favorite Things" and with great beauty on "Naima," but Pharoah Sanders' ferocious screeching on the latter piece largely ruins the almost-sacred ballad. Pianist Alice Coltrane, bassist Jimmy Garrison, and drummer Rashied Ali mostly vamp behind the saxophonists. This album is worth getting for Coltrane's passionate but coherent playing, but one wishes that Sanders (who comes across as a much more limited player) had sat the night out.

Tracklist:

01 - Naima
02 - Introduction To My Favorite Things
03 - My Favorite Things

Produced by Bob Thiele.
Recorded on May 28, 1966 at Village Vanguard, NYC.

Musicians:
John Coltrane - soprano saxophone, tenor saxophone, bass clarinet, flute
Pharoah Sanders - tenor saxophone, flute
Alice Coltrane - piano
Jimmy Garrison - bass
Rashied Ali - drums
Emanuel Rahim - percussion

Analyzed: John Coltrane / Live At The Village Vanguard Again!
––––––––––––––––––––––––––––––––––––––––

DR Peak RMS Duration Track
––––––––––––––––––––––––––––––––––––––––
DR10 0.00 dB -12.45 dB 15:09 01-Naima
DR12 -1.39 dB -19.77 dB 6:10 02-Introduction To My Favorite Things
DR11 0.00 dB -12.94 dB 20:21 03-My Favorite Things
––––––––––––––––––––––––––––––––––––––––

Number of tracks: 3
Official DR value: DR11

Samplerate: 192000 Hz
Channels: 2
Bits per sample: 24
Bitrate: 6842 kbps
Codec: FLAC
================================================================================


Thanks to the Original customer!