Tags
Language
Tags

John Coltrane - My Favorite Things (1961) [Stereo, Reissue 2013] PS3 ISO + DSD64 + Hi-Res FLAC

Posted By: HDAtall
John Coltrane - My Favorite Things (1961) [Stereo, Reissue 2013] PS3 ISO + DSD64 + Hi-Res FLAC

John Coltrane - My Favorite Things (1961) [Stereo, Reissue 2013]
PS3 Rip | SACD ISO | DSD64 2.0 > 1-bit/2.8224 MHz | 40:45 minutes | Scans included | 1,29 GB
or DSD64 2.0 (from SACD-ISO to Tracks.dsf) > 1-bit/2.8224 MHz | Full Scans included | 1,13 GB
or FLAC (carefully converted & encoded to tracks) 24bit/96 kHz | Full Scans included | 1,05 GB

My Favorite Things is the seventh studio album by jazz musician John Coltrane, released in 1961 on Atlantic Records. It was the first album to feature Coltrane playing soprano saxophone. The record became a major commercial success. In 1998, the album received the Grammy Hall of Fame award. It attained gold record status in 2018, having sold 500,000 copies.

Although seemingly impossible to comprehend, this landmark jazz date made in 1960 was recorded in less than three days. All the more remarkable is that the same sessions which yielded My Favorite Things would also inform a majority of the albums Coltrane Plays the Blues, Coltrane's Sound, and Coltrane Legacy. It is easy to understand the appeal that these sides continue to hold. The unforced, practically casual soloing styles of the assembled quartet – which includes Coltrane (soprano/tenor sax), McCoy Tyner (piano), Steve Davis (bass), and Elvin Jones (drums) – allow for tastefully executed passages à la the Miles Davis Quintet, a trait Coltrane no doubt honed during his tenure in that band. Each track of this album is a joy to revisit. The ultimate listenability may reside in this quartet's capacity to not be overwhelmed by the soloist. Likewise, they are able to push the grooves along surreptitiously and unfettered. For instance, the support that the trio – most notably Tyner – gives to Coltrane on the title track winds the melody in and around itself. However, instead of becoming entangled and directionless, these musical sidebars simultaneously define the direction the song is taking. As a soloist, the definitive soprano sax runs during the Cole Porter standard "Everytime We Say Goodbye" and tenor solos on "But Not for Me" easily establish Coltrane as a pioneer of both instruments.

Tracklist:

01. My Favorite Things
02. Everytime We Say
03. Summertime
04. But Not for Me

Personnel
John Coltrane - soprano (1,2) & tenor (3,4,) saxophone
McCoy Tyner - piano
Steve Davis - bass
Elvin Jones - drums

foobar2000 1.6.7 / Dynamic Range Meter 1.1.1

––––––––––––––––––––––––––––––––––––––––
Analyzed: John Coltrane / My Favorite Things
––––––––––––––––––––––––––––––––––––––––

DR Peak RMS Duration Track
––––––––––––––––––––––––––––––––––––––––
DR13 -7.45 dB -23.08 dB 13:46 01-My Favorite Things
DR14 -6.20 dB -24.07 dB 5:44 02-Everytime We Say Goodbye
DR13 -6.82 dB -23.02 dB 11:36 03-Summertime
DR12 -7.54 dB -22.14 dB 9:39 04-But Not For Me
––––––––––––––––––––––––––––––––––––––––

Number of tracks: 4
Official DR value: DR13

Samplerate: 2822400 Hz / PCM Samplerate: 176400 Hz
Channels: 2
Bits per sample: 1
Bitrate: 5645 kbps
Codec: DSD64


Thanks to ManWhoCan!
Uncompressed SACD ISO size > 1,63 GB
>