John Di Martino's Romantic Jazz Trio - The Beatles In Jazz (2010) [Japan 2017] SACD ISO + Hi-Res FLAC

Posted By: HDAtall
John Di Martino's Romantic Jazz Trio - The Beatles In Jazz (2010) [Japan 2017] SACD ISO + Hi-Res FLAC

John Di Martino's Romantic Jazz Trio - The Beatles In Jazz (2010) [Japan 2017]
SACD Rip | SACD ISO | DSD64 2.0 > 1-bit/2.8224 MHz | 59:08 minutes | Front/Rear Covers | 1,94 GB
or FLAC(converted with foobar2000 to tracks) 24bit/88,2 kHz | Front/Rear Covers | 1,25 GB

Multiple Grammy nominee John Di Martino — composer, arranger, pianist — has recorded many albums for Venus Records with his Romantic Jazz Trio. Noted for his versatility, John has performed and recorded with such notables as Kenny Burrell, James Moody, Joe Lovano, David "Fat Head" Newman, Pat Martino, Paquito D'Rivera and Houston Person. On this album John Di Martino and his Romantic Jazz Trio turns Beatles' pop songs into jazz tunes. Featured songs include "Penny Lane", "Yesterday", "Let It Be" and many more.

Tracklist:

01. The Fool On The Hill
02. Let It Be
03. Because
04. Fixing A Hole
05. In My Life
06. Norwegian Wood
07. Come Together
08. Penny Lane
09. Blackbird
10. Eleanor Rigby
11. Yesterday
12. Got To Get You Into My Life
13. Here, There And Everywhere

Produced, Mixed & Mastered by Tetsuo Hara. Engineered by Anthony Ruotolo.
Recorded on October 5 & 6, 2009 at Avatar Studio in New York.
Venus Hyper Magnum Sound Direct Mix. VENUS Japan # VHGD-196.

Personnel
John Di Martino - piano
Boris Kozlov - bass
Tim Horner - drums

foobar2000 1.3.16 / Dynamic Range Meter 1.1.1

––––––––––––––––––––––––––––––––––––––––
Analyzed: JOHN DI MARTINO'S ROMANTIC JAZZ TRIO / The Beatles In Jazz
––––––––––––––––––––––––––––––––––––––––

DR Peak RMS Duration Track
––––––––––––––––––––––––––––––––––––––––
DR8 -4.67 dB -14.98 dB 4:27 01-The Fool On The Hill
DR8 -4.72 dB -15.25 dB 4:01 02-Let It Be
DR9 -4.68 dB -16.16 dB 4:27 03-Because
DR9 -4.58 dB -14.63 dB 4:10 04-Fixing A Hole
DR10 -4.62 dB -17.09 dB 4:10 05-In My Life
DR7 -4.78 dB -13.85 dB 4:15 06-Norwegian Wood
DR8 -4.64 dB -14.47 dB 4:48 07-Come Together
DR8 -4.54 dB -14.23 dB 6:06 08-Penny Lane
DR8 -4.72 dB -15.67 dB 3:17 09-Blackbird
DR8 -4.48 dB -13.83 dB 4:05 10-Eleanor Rigby
DR9 -4.67 dB -15.65 dB 4:42 11-Yesterday
DR8 -4.73 dB -13.97 dB 5:48 12-Got To Get You Into My Life
DR8 -4.67 dB -14.59 dB 4:54 13-Here, There And Everywhere
––––––––––––––––––––––––––––––––––––––––

Number of tracks: 13
Official DR value: DR8

Samplerate: 2822400 Hz / PCM Samplerate: 88200 Hz
Channels: 2
Bits per sample: 1
Bitrate: 5645 kbps
Codec: DSD64


Thanks to jazzyman!
Uncompressed SACD ISO size > 2,39 GB
>