John Di Martino's Romantic Jazz Trio - Chopin Jazz (2010) [Japan 2017] SACD ISO + Hi-Res FLAC

Posted By: HDAtall
John Di Martino's Romantic Jazz Trio - Chopin Jazz (2010) [Japan 2017] SACD ISO + Hi-Res FLAC

John Di Martino's Romantic Jazz Trio - Chopin Jazz (2010) [Japan 2017]
SACD Rip | SACD ISO | DSD64 2.0 > 1-bit/2.8224 MHz | 56:16 minutes | Front/Rear Covers | 1,74 GB
or FLAC(converted with foobar2000 to tracks) 24bit/88,2 kHz | Front/Rear Covers | 1,22 GB

Multiple Grammy nominee John Di Martino–composer, arranger, pianist–has recorded many albums for Venus Records with his Romantic Jazz Trio. Noted for his versatility, John has performed and recorded with such notables as Kenny Burrell, James Moody, Joe Lovano, David "Fat Head" Newman, Pat Martino, Paquito D'Rivera and Houston Person. John has been described as a "shape-shifter", for his creativity across musical genres. Here the trio devotes an entire album to jazzing up music by the classical composer Frederic Chopin.

Talented as he is as pianist, Di Martino is much more than a performer: He studied music theory and composition with Lennie Tristano and Don Sebesky. His arranging skills are in full display in this album, whose concept could be a tricky proposition for the less talented. Di Martino takes a lot of liberty while respecting the original melodies, and turns them into thrilling, majestic and gorgeous jazz performances. Celebrating the 200th anniversary of Frederic Chopin's birth, several jazz musicians have released tribute albums, "jazzifying" Chopin's beautiful melodies. (See Rossano Sportiello's Chopin In Jazz, for example.) The present album is an entry by pianist John Di Martino and his Romantic Jazz trio. The participation of super-bassist George Mraz, in addition to the sensitive and lyrical drummer Richard De Rosa, has elevated this album to an even higher plane. Recommended to fans of passionate piano trio music.

Tracklist:

01. Night Flower - Nocturne No. 15 in F minor, Op. 55/1
02. Cry Of The Rain Forest - Prelude No. 2 in A minor, Op. 28-2
03. Lover's Temptation - Waltz No. 7 in C sharp minor, Op. 64/2
04. The Ballerina's Dream - Premiere Ballade No. 1 in G minor, Op. 23
05. No One But You - Etude No. 6 in E flat minor, Op. 10/6
06. Two Hearts Dancing - Nocturne No. 1 in B flat minor, Op. 9/1
07. Ancient Air - Krakowiak Op. 14 in F major
08. A Woman In Love - Prelude No. 20 in C minor, Op. 28/20
09. Jasmine Lullaby - Mazurka No. 13 in A minor, Op. 17-4
10. African Sunrise - Nocturne No. 7 in C sharp minor, Op. 27/1
11. Azure Kiss - Prelude No. 4 in E minor, Op. 28/4
12. Cinnamon Tears - Funeral March in C minor, Op. 72/2
13. Drifting In A Mist - Waltz No. 3 in A minor, Op. 34/2

Produced, Mixed & Mastered by Tetsuo Hara. Engineered by Katherine Miller.
Recorded on December 20 & 21, 2009 at Avatar Studio in New York.
Venus Hyper Magnum Sound Direct Mix. VENUS Japan # VHGD-260.

Personnel
John Di Martino - piano
George Mraz - bass
Richard De Rosa - drums

foobar2000 1.3.17 / Dynamic Range Meter 1.1.1

––––––––––––––––––––––––––––––––––––––––
Analyzed: JOHN DIMARTINO'S ROMANTIC JAZZ TRIO / Chopin Jazz
––––––––––––––––––––––––––––––––––––––––

DR Peak RMS Duration Track
––––––––––––––––––––––––––––––––––––––––
DR8 -4.32 dB -13.48 dB 5:03 01-Night Flower
DR7 -4.59 dB -13.96 dB 4:27 02-Cry Of The Rain Forest
DR8 -5.10 dB -14.14 dB 4:13 03-Lover's Temptation
DR7 -4.36 dB -13.85 dB 4:22 04-The Ballerina's Dream
DR7 -5.44 dB -13.77 dB 4:09 05-No One But You
DR8 -4.38 dB -14.46 dB 4:35 06-Two Hearts Dancing
DR6 -5.56 dB -14.34 dB 2:16 07-Ancient Air
DR7 -4.50 dB -13.29 dB 5:50 08-A Woman In Love
DR7 -5.23 dB -14.64 dB 4:32 09-Jasmine Lullaby
DR7 -5.54 dB -14.25 dB 2:47 10-African Sunrise
DR7 -5.42 dB -14.35 dB 4:20 11-Azure Kiss
DR7 -5.61 dB -13.96 dB 3:22 12-Cinnamon Tears
DR7 -4.82 dB -13.91 dB 6:20 13-Drifting In A Mist
––––––––––––––––––––––––––––––––––––––––

Number of tracks: 13
Official DR value: DR7

Samplerate: 2822400 Hz / PCM Samplerate: 88200 Hz
Channels: 2
Bits per sample: 1
Bitrate: 5645 kbps
Codec: DSD64


Thanks to jazzyman!
Uncompressed SACD ISO size > 2,25 GB

John Di Martino's Romantic Jazz Trio
>