Tags
Language
Tags

John Di Martino's Romantic Jazz Trio - Jazz Mozart (2007) [Japan 2017] SACD ISO + DSD64 + Hi-Res FLAC

Posted By: HDAtall
John Di Martino's Romantic Jazz Trio - Jazz Mozart (2007) [Japan 2017] SACD ISO + DSD64 + Hi-Res FLAC

John Di Martino's Romantic Jazz Trio - Jazz Mozart (2007) [Japan 2017]
SACD Rip | SACD ISO | DSD64 2.0 > 1-bit/2.8224 MHz | 53:22 minutes | Front/Rear Covers | 1,58 GB
or DSD64 2.0 (from SACD-ISO to Tracks.dsf) > 1-bit/2.8224 MHz | Front/Rear Covers | 1,41 GB
or FLAC (carefully converted & encoded to tracks) 24bit/48 kHz | Front/Rear Covers | 650 MB

Multiple Grammy nominee John Di Martino–composer, arranger, pianist–has recorded many albums for Venus Records with his Romantic Jazz Trio. Noted for his versatility, John has performed and recorded with such notables as Kenny Burrell, James Moody, Joe Lovano, David "Fat Head" Newman, Pat Martino, Paquito D'Rivera and Houston Person. John has been described as a "shape-shifter", for his creativity across musical genres. Here the trio devotes an entire album to jazzing up music by the classical composer W.A. Mozart.

The trio session on Jazz Mozart features pianist John di Martino with double bassist Boris Kozlov and drummer Ernesto Simpson in a program of some of Mozart's more romantic pieces. The waltzes, in particular, carry a rewarding texture that allows for natural jazz interpretation. "The Fire of Passion , for example, from the "Piano Concerto No. 24 in C minor , briskly ebbs and flows like the motion of our lungs, as we inhale the music's secret. "Fantasy in D minor moves with a deliberate air that calls out tension and release in a passionate state. The trio interprets "Lacrymosa (Requiem, K696) in a dark murmur that allows plenty of room for pensive thinking. Tender ballads such as "My Heart Needs to Know and "Arc of Love produce impressive results. diMartino has added one original piece, "Desert Journey , which contains an exotic charm of its own. Mozart created these works of art over 200 years ago and now di Martino redefines them as jazz masterpieces.

Tracklist:

01. The Fire of Passion ~ Piano Concerto #24 in C minor K491
02. Soft , Like The Petals Of A Rose ~ Piano Concerto #21 in C major K467
03. Desert Journey ~ Homage A Mozart (written by ohn Di Martino)
04. I've Lost Her ~ The Marriage Of Figaro K492
05. Fantasy in D minor K397
06. My Heart Needs To Know ~ Piano Concerto #27 in B flat major K595
07. Lacrymosa ~ Requiem K696
08. The Willows Song ~ Concerto for Clarinet and Orchestra in A major K622
09. Dance Of The Wind ~ Symphony #40 in G minor K550
10. Arc Of Love ~ Piano Concerto #23 in A major K488

Personnel
John Di Martino - piano
Boris Kozlov - bass
Ernesto Simpson - drums

Produced, Mixed & Mastered by Tetsuo Hara.
Recorded on March 27-28, 2006 at The Studio in New York.
Venus Hyper Magnum Sound Direct Mix. VENUS Japan # VHGD-240.

foobar2000 1.6.4 / Dynamic Range Meter 1.1.1

––––––––––––––––––––––––––––––––––––––––
Analyzed: JOHN DI MARTINO'S ROMANTIC JAZZ TRIO / Jazz Mozart
––––––––––––––––––––––––––––––––––––––––

DR Peak RMS Duration Track
––––––––––––––––––––––––––––––––––––––––
DR11 -4.10 dB -18.28 dB 5:02 01-The Fire of Passion ~ Piano Concerto #24 in C minor K491
DR12 -4.13 dB -20.11 dB 4:52 02-Soft , Like The Petals Of A Rose ~ Piano Concerto #21 in C major K467
DR9 -3.78 dB -15.80 dB 6:04 03-Desert Journey ~ Homage A Mozart
DR11 -3.94 dB -17.79 dB 5:58 04-I've Lost Her ~ The Marriage Of Figaro K492
DR9 -4.00 dB -15.94 dB 5:32 05-Fantasy in D minor K397
DR9 -3.90 dB -16.28 dB 5:19 06-My Heart Needs To Know ~ Piano Concerto #27 in B flat major K595
DR8 -3.89 dB -15.22 dB 6:01 07-Lacrymosa ~ Requiem K696
DR13 -4.22 dB -20.29 dB 4:33 08-The Willows Song ~ Concerto for Clarinet and Orchestra in A major K622
DR8 -3.98 dB -14.91 dB 4:33 09-Dance Of The Wind ~ Symphony #40 in G minor K550
DR10 -4.01 dB -17.97 dB 5:28 10-Arc Of Love ~ Piano Concerto #23 in A major K488
––––––––––––––––––––––––––––––––––––––––

Number of tracks: 10
Official DR value: DR10

Samplerate: 2822400 Hz / PCM Samplerate: 176400 Hz
Channels: 2
Bits per sample: 1
Bitrate: 5645 kbps
Codec: DSD64


Thanks to jazzyman!
Uncompressed SACD ISO size > 2,13 GB
>