Tags
Language
Tags

John Di Martino's Romantic Jazz Trio - The Michael In Jazz (2013) [Japan 2018] SACD ISO + DSD64 + Hi-Res FLAC

Posted By: HDAtall
John Di Martino's Romantic Jazz Trio - The Michael In Jazz (2013) [Japan 2018] SACD ISO + DSD64 + Hi-Res FLAC

John Di Martino's Romantic Jazz Trio - The Michael In Jazz: Tribute To Michael Jackson (2013) [Japan 2018]
SACD Rip | SACD ISO | DSD64 2.0 > 1-bit/2.8224 MHz | 60:41 minutes | Front/Rear Covers | 1,89 GB
or DSD64 2.0 (from SACD-ISO to Tracks.dsf) > 1-bit/2.8224 MHz | Front/Rear Covers | 1,67 GB
or FLAC (carefully converted & encoded to tracks) 24bit/48 kHz | Front/Rear Covers | 761 MB

Philadelphia-native composer, arranger and pianist John di Martino is a versatile musician who is equally comfortable in the straight ahead jazz, Latin jazz and world music scenes. Di Martino has released a lot well-received leader albums for the Japanese Venus Records, with different rhythm sections, under the moniker "Romantic Jazz Trio". For this tribute to the King of Pop, John and his Romantic Jazz Trio perform some of Michael Jackson's best-loved songs.

Tracklist:

01. Beat It
02. Billie Jean
03. You Are Not Alone
04. Ben
05. Gone Too Soon
06. Human Nature
07. I Can't Help It
08. I'll Be There
09. The Lady In My Life
10. Never Can Say Goodbye
11. She's Out Of My Life
12. The Girl Is Mine
13. The Way You Make Me Feel
14. I Wanna Be Where You Are

Personnel
John Di Martino - piano
Boris Kozlov - bass
Alvin Atkinson - drums

Produced & Mastered by Tetsuo Hara. Engineered by Jon Rosenberg.
Recorded on October 10-11, 2011 at Tedesco Studio in New York.
Venus Hyper Magnum Sound Direct Mix. VENUS Japan # VHGD-311.

foobar2000 1.6.2 / Dynamic Range Meter 1.1.1

––––––––––––––––––––––––––––––––––––––––
Analyzed: JOHN DI MARTINO'S ROMANTIC JAZZ TRIO / The Michael In Jazz
––––––––––––––––––––––––––––––––––––––––

DR Peak RMS Duration Track
––––––––––––––––––––––––––––––––––––––––
DR7 -3.95 dB -11.85 dB 4:15 01-Beat It
DR6 -4.29 dB -12.08 dB 4:58 02-Billie Jean
DR7 -4.29 dB -12.83 dB 3:13 03-You Are Not Alone
DR7 -4.31 dB -13.73 dB 5:18 04-Ben
DR8 -4.58 dB -14.72 dB 2:51 05-Gone Too Soon
DR7 -4.51 dB -12.70 dB 5:17 06-Human Nature
DR6 -4.17 dB -11.81 dB 4:28 07-I Can't Help It
DR6 -4.48 dB -12.27 dB 3:32 08-I'll Be There
DR7 -4.40 dB -12.60 dB 3:57 09-The Lady In My Life
DR7 -4.41 dB -12.51 dB 3:46 10-Never Can Say Goodbye
DR7 -4.51 dB -13.57 dB 7:06 11-She's Out Of My Life
DR7 -4.48 dB -12.40 dB 3:09 12-The Girl Is Mine
DR7 -4.10 dB -11.98 dB 4:39 13-The Way You Make Me Feel
DR6 -4.22 dB -11.56 dB 4:10 14-I Wanna Be Where You Are
––––––––––––––––––––––––––––––––––––––––

Number of tracks: 14
Official DR value: DR7

Samplerate: 2822400 Hz / PCM Samplerate: 176400 Hz
Channels: 2
Bits per sample: 1
Bitrate: 5645 kbps
Codec: DSD64


Thanks to jazzyman!
Uncompressed SACD ISO size > 2,43 GB
>