John Di Martino Romantic Jazz Trio - Magical Mystery (2008) [Japan 2017] SACD ISO + Hi-Res FLAC

Posted By: HDAtall
John Di Martino Romantic Jazz Trio - Magical Mystery (2008) [Japan 2017] SACD ISO + Hi-Res FLAC

John Di Martino Romantic Jazz Trio - Magical Mystery (2008) [Japan 2017]
SACD Rip | SACD ISO | DSD64 2.0 > 1-bit/2.8224 MHz | 72:51 minutes | Front/Rear Covers | 2,4 GB
or FLAC(converted with foobar2000 to tracks) 24bit/88,2 kHz | Front/Rear Covers | 1,58 GB

John Di Martino, composer, arranger, pianist, has recorded many CD's for Venus Records with his "Romantic Jazz Trio". Noted for his versatility, John has performed and recorded with such notables as Kenny Burrell, James Moody, Joe Lovano, David "Fat Head" Newman, Pat Martino, Paquito D'Rivera and Houston Person.

Of the 70 published Monk compositions, two dozen or so are performed more often than the rest. With that thought in mind, it is more difficult for a pianist to break new ground on a record date, though Di Martino has a few twists in store. Monk's "Epistrophy" alternates between an intense staccato attack and a straight-ahead bop groove. "'Round Midnight" is easily Monk's best-known work; Di Martino doesn't overly attempt to stretch the boundaries of its theme, but improvises thoughtfully while maintaining the essence of its haunting melody. The fun romp through "Well, You Needn't" contrasts with the relaxed setting of "Eronel." Di Martino's lyrical title track is a tribute to Monk and (presumably) Japanese novelist Haruki Murakami, an enjoyable piece that doesn't attempt to mimic Monk's writing style.

Tracklist:

01. Epistrophy
02. Criss Cross
03. Bemsha Swing
04. Ask Me Now
05. Rhythm -A- Ning
06. Round Midnight
07. Well You Needn't
08. Pannonica
09. Eronel
10. Ugly Beauty
11. Magical Mystery ~for Monk and Murakami
12. Blue Monk
13. In Walked Bud

Produced, Mixed & Mastered by Tetsuo Hara. Engineered by Katherine Miller.
Recorded on June 1 & 2, 2007 at The Studio in New York.
Venus Hyper Magnum Sound Direct Mix. VENUS Japan # VHGD-214.

Personnel
John Di Martino - piano
Essiet Okon Essiet - bass
Victor Jones - drums

foobar2000 1.3.16 / Dynamic Range Meter 1.1.1

––––––––––––––––––––––––––––––––––––––––
Analyzed: ROMANTIC JAZZ TRIO / Magical Mystery
––––––––––––––––––––––––––––––––––––––––

DR Peak RMS Duration Track
––––––––––––––––––––––––––––––––––––––––
DR7 -4.18 dB -12.90 dB 4:58 01-Epistrophy
DR8 -4.08 dB -13.74 dB 5:42 02-Criss Cross
DR7 -4.47 dB -13.50 dB 4:46 03-Bemsha Swing
DR8 -4.61 dB -14.50 dB 5:56 04-Ask Me Now
DR7 -4.17 dB -12.98 dB 4:29 05-Rhythm -A- Ning
DR9 -4.65 dB -16.22 dB 8:07 06-Round Midnight
DR7 -4.15 dB -12.45 dB 3:15 07-Well You Needn't
DR8 -3.91 dB -13.58 dB 6:08 08-Pannonica
DR7 -4.52 dB -13.83 dB 5:42 09-Eronel
DR9 -4.63 dB -15.62 dB 5:33 10-Ugly Beauty
DR8 -4.32 dB -14.11 dB 6:26 11-Magical Mystery ~for Monk and Murakami
DR7 -4.37 dB -14.05 dB 5:54 12-Blue Monk
DR7 -4.11 dB -13.00 dB 5:50 13-In Walked Bud
––––––––––––––––––––––––––––––––––––––––

Number of tracks: 13
Official DR value: DR8

Samplerate: 2822400 Hz / PCM Samplerate: 88200 Hz
Channels: 2
Bits per sample: 1
Bitrate: 5645 kbps
Codec: DSD64


Thanks to jazzyman!
Uncompressed SACD ISO size > 2,94 GB
>