Tags
Language
Tags

John Lee Hooker - It Serve You Right To Suffer (1966) [Analogue Productions 2010] PS3 ISO + DSD64 + Hi-Res FLAC

Posted By: HDAtall
John Lee Hooker - It Serve You Right To Suffer (1966) [Analogue Productions 2010] PS3 ISO + DSD64 + Hi-Res FLAC

John Lee Hooker - It Serve You Right To Suffer (1966) [APO Remaster 2010]
PS3 Rip | SACD ISO | DSD64 2.0 > 1-bit/2.8224 MHz | 32:37 minutes | Scans included | 992 MB
or DSD64 2.0 (from SACD-ISO to Tracks.dsf) > 1-bit/2.8224 MHz | Full Scans included | 871 MB
or FLAC (carefully converted & encoded to tracks) 24bit/96 kHz | Full Scans included | 755 MB

Given Hooker's unpredictable timing and piss-poor track record recording with bands, this 1965 one-off session for the jazz label Impulse! would be a recipe for disaster. But with Panama Francis on drums, Milt Hinton on bass, and Barry Galbraith on second guitar, the result is some of the best John Lee Hooker material with a band that you're likely to come across. The other musicians stay in the pocket, never overplaying or trying to get Hooker to make chord changes he has no intention of making. This record should be played for every artist who records with Hooker nowadays, as it's a textbook example of how exactly to back the old master. The most surreal moment occurs when William Wells blows some totally cool trombone on Hooker's version of Berry Gordy's "Money". If you run across this one in a pile of 500 other John Lee Hooker CDs, grab it; it's one of the good ones.

Tracklist:

01. Shake It Baby
02. Country Boy
03. Bottle Up And Go
04. You're Wrong
05. Sugar Mama
06. Decoration Day
07. Money
08. It Serve You Right To Suffer

Recorded on November 23, 1965.

foobar2000 1.6.7 / Dynamic Range Meter 1.1.1

––––––––––––––––––––––––––––––––––––––––
Analyzed: John Lee Hooker / It Serve You Right To Suffer
––––––––––––––––––––––––––––––––––––––––

DR Peak RMS Duration Track
––––––––––––––––––––––––––––––––––––––––
DR12 -4.90 dB -19.27 dB 4:20 01-Shake It Baby
DR13 -8.36 dB -25.28 dB 5:37 02-Country Boy
DR14 -5.26 dB -20.87 dB 2:26 03-Bottle Up And Go
DR13 -6.56 dB -21.65 dB 4:19 04-You're Wrong
DR15 -4.23 dB -21.92 dB 3:12 05-Sugar Mama
DR12 -6.40 dB -23.31 dB 5:06 06-Decoration Day
DR14 -3.74 dB -19.96 dB 2:24 07-Money
DR15 -6.03 dB -24.63 dB 5:13 08-It Serve You Right To Suffer
––––––––––––––––––––––––––––––––––––––––

Number of tracks: 8
Official DR value: DR13

Samplerate: 2822400 Hz / PCM Samplerate: 176400 Hz
Channels: 2
Bits per sample: 1
Bitrate: 5645 kbps
Codec: DSD64


Thanks to PS³SACD!
Uncompressed SACD ISO size > 1,31 GB
>