Tags
Language
Tags

John Legend - Get Lifted (2004) MCH PS3 ISO + Hi-Res FLAC

Posted By: HDAtall
John Legend - Get Lifted (2004) MCH PS3 ISO + Hi-Res FLAC

John Legend - Get Lifted (2004)
PS3 Rip | SACD ISO | DST64 2.0 & 5.1 > 1-bit/2.8224 MHz | 57:43 minutes | Scans included | 4,35 GB
or FLAC 2.0 Stereo(converted with foobar2000 to tracks) 24bit/96 kHz | Full Scans included | 1,38 GB
Features Stereo and Multichannel Surround Sound

Given the sped-up classic soul samples with which Kanye West has made his mark, it comes as no surprise that the producer/rapper would pick a tradition-minded R&B singer as his first big pet project. Legend first made his name on Philly's incense-clouded, '70s-obsessed neo-soul scene, then found his way to New York and became West's right-hand man in the studio. His patron's pop smarts serve Legend well–while many contemporary R&B records rely too heavily on a singer's cadence and skill to carry underdeveloped tunes.

If you've listened to Top 40 radio or flipped through the video channels during the past few years, odds are pretty good you know something about John Legend. He played piano on Lauryn Hill's "Everything Is Everything" and might as well be considered Kanye West's sidekick, having assisted the producer and MC on several sessions – Jay-Z's "Encore" and Slum Village's "Selfish" being two of the more prominent 2004 singles featuring his work. A former choir director, he has also released a handful of energetic live discs, some of which are credited to his less hubristic birth name, John Stephens. And though he claims "I've got something new," you've also heard substantial chunks of Get Lifted in records made decades ago by Sly & the Family Stone, Curtis Mayfield, Quincy Jones, and Bill Withers. This might not be a problem for listeners who crave anything that recalls the music they first heard in their youth, but Legend's over-reliance upon his inspirations is an impediment as much as a slick way to grab attention. That's because he has more than enough talent and charm to get by on his own. His own lyrics and hooks are unique and clever enough to get the point across that he's no everyday R&B artist and, just as importantly, he has a personable and instantly fetching voice you could listen to all day long. However, the association with West – whose Sony-distributed boutique label released the record – is very helpful. Without it, Legend would likely be zoned into neo-soul (2003's Live at SOB's New York City really makes this notion apparent), thereby standing little chance of reaching the ears of anyone younger than 30. The production work supporting his songs strikes a fine balance between soul and hip-hop, allowing him to appeal to those who are coming from either angle. This is a very good record. It's a given that Legend is destined to make at least two others that top it.

Tracklist:

01. Prelude
02. Let's Get Lifted
03. Used To Love U
04. Alright
05. She Don't Have To Know
06. Number One
07. I Can Change
08. Ordinary People
09. Stay With You
10. Let's Get Lifted Again
11. So High
12. Refuge (When It's Cold Outside)
13. It Don't Have To Change
14. Live It Up
15. So High (Cloud 9 Remix)

foobar2000 1.6 / Dynamic Range Meter 1.1.1

––––––––––––––––––––––––––––––––––––––––
Analyzed: John Legend / Get Lifted
––––––––––––––––––––––––––––––––––––––––

DR Peak RMS Duration Track
––––––––––––––––––––––––––––––––––––––––
DR12 -7.30 dB -28.80 dB 0:44 01-Prelude
DR10 -7.88 dB -20.03 dB 3:37 02-Let's Get Lifted
DR11 -5.86 dB -18.59 dB 3:31 03-Used To Love U
DR11 -6.36 dB -19.66 dB 3:21 04-Alright
DR12 -5.79 dB -19.75 dB 4:52 05-She Don't Have To Know
DR11 -6.07 dB -19.21 dB 3:18 06-Number One
DR12 -5.33 dB -20.43 dB 5:01 07-I Can Change
DR12 -7.31 dB -26.45 dB 4:41 08-Ordinary People
DR14 -7.35 dB -23.12 dB 3:50 09-Stay With You
DR12 -6.14 dB -20.40 dB 2:18 10-Let's Get Lifted Again
DR11 -6.36 dB -22.44 dB 5:09 11-So High
DR12 -6.04 dB -22.00 dB 4:13 12-Refuge (When It's Cold Outside)
DR13 -5.91 dB -22.78 dB 3:23 13-It Don't Have To Change
DR11 -6.78 dB -18.99 dB 4:37 14-Live It Up
DR10 -10.56 dB -21.72 dB 5:07 15-So High (Cloud 9 Remix)
––––––––––––––––––––––––––––––––––––––––

Number of tracks: 15
Official DR value: DR12

Samplerate: 2822400 Hz / PCM Samplerate: 176400 Hz
Channels: 6
Bits per sample: 1
Bitrate: 16934 kbps
Codec: DST64
================================================================================

––––––––––––––––––––––––––––––––––––––––
Analyzed: John Legend / Get Lifted
––––––––––––––––––––––––––––––––––––––––

DR Peak RMS Duration Track
––––––––––––––––––––––––––––––––––––––––
DR13 -7.07 dB -24.57 dB 0:44 01-Prelude
DR8 -5.98 dB -14.91 dB 3:37 02-Let's Get Lifted
DR7 -5.81 dB -14.22 dB 3:31 03-Used To Love U
DR8 -5.72 dB -14.90 dB 3:21 04-Alright
DR8 -5.91 dB -15.38 dB 4:52 05-She Don't Have To Know
DR8 -6.00 dB -15.09 dB 3:18 06-Number One
DR8 -5.71 dB -15.85 dB 5:01 07-I Can Change
DR12 -7.85 dB -23.88 dB 4:41 08-Ordinary People
DR11 -5.90 dB -18.26 dB 3:50 09-Stay With You
DR9 -5.89 dB -16.39 dB 2:18 10-Let's Get Lifted Again
DR9 -6.12 dB -19.32 dB 5:09 11-So High
DR10 -6.04 dB -17.98 dB 4:13 12-Refuge (When It's Cold Outside)
DR10 -6.42 dB -19.75 dB 3:23 13-It Don't Have To Change
DR7 -5.57 dB -14.61 dB 4:37 14-Live It Up
DR6 -9.81 dB -16.84 dB 5:07 15-So High (Cloud 9 Remix)
––––––––––––––––––––––––––––––––––––––––

Number of tracks: 15
Official DR value: DR9

Samplerate: 2822400 Hz / PCM Samplerate: 176400 Hz
Channels: 2
Bits per sample: 1
Bitrate: 5645 kbps
Codec: DST64


Thanks to ManWhoCan!
Uncompressed SACD ISO size > 4,06 GB
>