Tags
Language
Tags

John Legend - Love In The Future {Deluxe Edition} (2013) [Official Digital Download]

Posted By: HDV
John Legend - Love In The Future {Deluxe Edition} (2013) [Official Digital Download]

John Legend - Love In The Future (2013) [Deluxe Edition]
FLAC (tracks) 24-bit/44,1 kHz | Time - 67:31 minutes | 760 MB
Studio Master, Official Digital Download | Artwork: Front cover

"Love in the Future" is John Legend's first solo album since 2008. Featuring the production work of Kanye West, Ali Shaheed Muhammad, Q-Tip, Doc McKinney, the Runners, 88 Keys, Bink, and Hit-Boy, this Deluxe Version contains four additional tracks. The album is brimming with the work of five years put in by this R&B master songsmith, as well as several covers, including one of "Angel" by Anita Baker. Love in the Future is a fantastic album for old and new John Legend fans alike.

This is John Legend's first solo studio album since 2008's Evolver. Between the two releases, he recorded the Grammy-winning Wake Up! with the Roots, scored a gold single with "Tonight (Best You Ever Had)" (from the Think Like a Man soundtrack), was featured on a couple albums' worth of songs by other artists, and somehow managed to be deeply involved in philanthropy. He also got engaged. Although he proposed to model Chrissy Teigen five years after meeting her, much of Love in the Future seems drawn from a romance that was quicker to bloom. "The Beginning…" sets a tone of urgency with a scene from the day after their first night spent together. Legend sings with certitude, "Pick some names, boy or girl/Then we'll change, change the world." That sense of blissful urgency – of seizing the moment, getting lost, and knowing that the future is set – is belied in the pacing. Even the album's standard 16-track edition meanders at a crawling pace. It's broken up by the occasional soaring arrangement or some hypnotically clanking/pinging percussion, as heard on highlight "Made to Love," which resembles a latter-day Moby collaboration with distant handclapping, spooky background vocals, and a sample from Lil Louis' noisy house classic "Video Clash." This is a heavy, laboriously made set of songs. The list of producers alone includes Hit-Boy, Bink, 88 Keys, the Runners, Doc McKinney, Q-Tip, and Ali Shaheed Muhammad. Kanye West, and Dave Tozer pile on as co-producers and co-executive producers. Perhaps they ensured that the whole album would have its dramatic, slightly eerie tone; even the covers of Bobby Caldwell's "Open Your Eyes" and Anita Baker's "Angel" are a little uneasy. That level of sonic indulgence seems like it should be incompatible with an artist who is, essentially, a piano man, but Love in the Future is among Legend's best work, made for couples who are into one another for the long term while feeling a little daring and crazy.

Tracklist:

01 - Love In The Future (Intro)
02 - The Beginning…
03 - Open Your Eyes
04 - Made To Love (feat. Kimbra)
05 - Who Do We Think We Are (feat. Rick Ross)
06 - All Of Me
07 - Hold On Longer
08 - Save The Night
09 - Tomorrow
10 - What If I Told You? (Interlude)
11 - Dreams
12 - Wanna Be Loved
13 - Angel (Interlude) (feat. Stacy Barthe)
14 - You & I (Nobody In The World)
15 - Asylum
16 - Caught Up
17 - So Gone
18 - We Loved It (feat. Seal)
19 - Aim High
20 - For The First Time

Analyzed: John Legend / Love In The Future
––––––––––––––––––––––––––––––––––––––––

DR Peak RMS Duration Track
––––––––––––––––––––––––––––––––––––––––
DR9 -2.24 dB -12.14 dB 0:40 01-Love In The Future (Intro)
DR7 0.00 dB -8.34 dB 3:25 02-The Beginning…
DR7 0.00 dB -8.56 dB 3:07 03-Open Your Eyes
DR7 0.00 dB -9.01 dB 4:00 04-Made To Love (feat. Kimbra)
DR7 0.00 dB -8.23 dB 4:53 05-Who Do We Think We Are (feat. Rick Ross)
DR8 0.00 dB -9.73 dB 4:30 06-All Of Me
DR8 0.00 dB -9.45 dB 2:38 07-Hold On Longer
DR7 0.00 dB -8.63 dB 3:09 08-Save The Night
DR7 0.00 dB -8.24 dB 3:33 09-Tomorrow
DR10 0.00 dB -12.76 dB 0:51 10-What If I Told You? (Interlude)
DR10 0.00 dB -12.51 dB 2:39 11-Dreams
DR5 0.00 dB -6.23 dB 3:06 12-Wanna Be Loved
DR8 0.00 dB -9.98 dB 1:24 13-Angel (Interlude) (feat. Stacy Barthe)
DR7 0.00 dB -10.27 dB 4:13 14-You & I (Nobody In The World)
DR8 0.00 dB -9.88 dB 3:18 15-Asylum
DR6 0.00 dB -6.88 dB 3:46 16-Caught Up
DR7 0.00 dB -8.49 dB 4:46 17-So Gone
DR6 0.00 dB -7.53 dB 4:03 18-We Loved It (feat. Seal)
DR7 0.00 dB -9.01 dB 4:18 19-Aim High
DR9 0.00 dB -10.83 dB 5:12 20-For The First Time
––––––––––––––––––––––––––––––––––––––––

Number of tracks: 20
Official DR value: DR8

Samplerate: 44100 Hz
Channels: 2
Bits per sample: 24
Bitrate: 1381 kbps
Codec: FLAC
================================================================================


Thanks to the Original customer!