Please register here if you want to download anything!

If domain in your address bar is different from the list below
PLEASE LEAVE THAT SITE IMMEDIATELY
❗IT'S A DANGEROUS FAKE❗



Spicy Magazines for Men! ;-)

John Pizzarelli - John Pizzarelli Trio: Live At Birdland (2x SACD, 2003) MCH PS3 ISO + Hi-Res FLAC

Posted By: HDAtall
John Pizzarelli - John Pizzarelli Trio: Live At Birdland (2x SACD, 2003) MCH PS3 ISO + Hi-Res FLAC

John Pizzarelli - John Pizzarelli Trio: Live At Birdland (2x SACD, 2003)
PS3 Rip | SACD ISO | DST64 2.0 & 5.1 > 1-bit/2.8224 MHz | 131:41 minutes | Scans included | 8,02 GB
or FLAC 2.0 Stereo(converted with foobar2000 to tracks) 24bit/96 kHz | 131:32 mins | Scans | 2,74 GB

This is a wonderful, warm-hearted, and effortlessly virtuosic live recording by one of the finest living exponents of pre-bop small-ensemble jazz. With pianist Ray Kennedy and bassist Martin Pizzarelli (and on two songs joined by vocalist Grover Kemble), singer and guitarist John Pizzarelli runs through a generally lightweight but thoroughly charming set of standards, homages, funny stories, and the occasional original tune; the fast tunes are light and frothy, the ballads smooth and gentle, and even the moments that are less than utterly inspired work together with the album's highlights to create a very satisfying whole.

John Pizzarelli has a suit sponsor, which tells you something about what to expect of him as a singer: his voice is smooth and warm, offering a nice combination of Chet Baker's timbre and Dean Martin's fullness; as a guitarist you need to know that he favors seven-string guitars and flat-wound strings, leading him naturally to a swinging Django Reinhardt-meets-Freddie Green kind of sound. As for the trio's instrumentation, it's true that when you can comp with this kind of authority you don't technically need a drummer. But on a few tracks a drummer would have filled out the band's sound nicely. Highlights include the group's fun, slightly greasy take on "Frim Fram Sauce" and a great ode to Art Tatum called "Tea for Tatum," as well as a fine original blues composition titled "Headed Out to Vera's." Pizzarelli's own "Oh, How My Heart Beats for You" and "Day I Found You" are also wonderful. But the album's standout track is a limpidly gorgeous rendition of another original, "Better Run Before It's Spring." Pizzarelli is obviously having a blast in the intimate setting of the legendary Birdland club, and so will any jazz lover who takes the time to listen. Very highly recommended.

Tracklist:

Disc 1 #01. Introduction
Disc 1 #02. Just You, Just Me
Disc 1 #03. The Frim Fram Sauce
Disc 1 #04. This Song Is You
Disc 1 #05. Isn't It A Pity
Disc 1 #06. Rhode Island Intro
Disc 1 #07. Rhode Island
Disc 1 #08. Ray Kennedy - Library of Congress Story
Disc 1 #09. Gospel Truth
Disc 1 #10. Ray Kennedy - Dizzy Gillespie Story
Disc 1 #11. Tea For Tatum
Disc 1 #12. James Taylor Intro 1
Disc 1 #13. Don't Let Me Be Lonely Tonight
Disc 1 #14. James Taylor Intro 2
Disc 1 #15. Mean Old Man
Disc 1 #16. Manhattan
Disc 1 #17. Rosemary Clooney Story
Disc 1 #18. Moonlight Becomes You
Disc 1 #19. Final Intro
Disc 1 #20. Will You Still Be Mine?

Disc 2 #01. Introduction
Disc 2 #02. Three Little Words
Disc 2 #03. They Can't That Away From Me
Disc 2 #04. Oh How My Heart Beats For You
Disc 2 #05. The Day I Found You
Disc 2 #06. Polliwog Story
Disc 2 #07. It's Only A Paper Moon
Disc 2 #08. Stompin At The Savoy
Disc 2 #09. Better Run Before It's Spring
Disc 2 #10. Grover Kemble Story
Disc 2 #11. Headed Out To Vera's
Disc 2 #12. Baby Medley
Disc 2 #13. I Like Jersey Best Intro
Disc 2 #14. I Like Jersey Best
Disc 2 #15. My Castle's Rockin'
Disc 2 #16. Baby Just Come Home To Me

Recorded live on on September 25-28, 2002 at Birdland, New York.

Personnel
John Pizzarelli - guitar and vocals
Ray Kennedy - piano
Martin Pizzarelli - bass
Grover Kemble - vocals on "2-11 & 2-15"

foobar2000 1.4.6 / Dynamic Range Meter 1.1.1

––––––––––––––––––––––––––––––––––––––––
Analyzed: John Pizarelli Trio / Telarc International Corporation
––––––––––––––––––––––––––––––––––––––––

DR Peak RMS Duration Track
––––––––––––––––––––––––––––––––––––––––
DR13 -7.71 dB -30.64 dB 0:18 01-Introduction
DR16 -2.98 dB -25.95 dB 4:31 02-Three Little Words
DR17 -4.42 dB -29.75 dB 6:02 03-They Can't That Away From Me
DR14 -3.52 dB -24.42 dB 4:27 04-Oh How My Heart Beats For You
DR18 -2.27 dB -33.09 dB 3:10 05-The Day I Found You
DR13 -12.17 dB -36.26 dB 1:43 06-Polliwog Story
DR18 -2.85 dB -30.34 dB 7:39 07-It's Only A Paper Moon
DR15 -3.32 dB -26.46 dB 4:44 08-Stompin At The Savoy
DR15 -11.36 dB -32.75 dB 3:38 09-Better Run Before It's Spring
DR18 -7.35 dB -36.20 dB 2:55 10-Grover Kemble Story
DR15 -2.53 dB -24.37 dB 3:50 11-Headed Out To Vera's
DR16 -8.18 dB -32.44 dB 5:30 12-Baby Medley
DR15 -10.23 dB -35.30 dB 0:58 13-I Like Jersey Best Intro
DR15 -2.23 dB -25.13 dB 8:29 14-I Like Jersey Best
DR13 -2.18 dB -22.49 dB 3:55 15-My Castle's Rockin'
DR14 -3.99 dB -24.19 dB 3:13 16-Baby Just Come Home To Me
––––––––––––––––––––––––––––––––––––––––

Number of tracks: 16
Official DR value: DR15

Samplerate: 2822400 Hz / PCM Samplerate: 176400 Hz
Channels: 6
Bits per sample: 1
Bitrate: 16934 kbps
Codec: DST64
================================================================================

––––––––––––––––––––––––––––––––––––––––
Analyzed: John Pizzarelli Trio / John Pizzarelli Live at Birdland
––––––––––––––––––––––––––––––––––––––––

DR Peak RMS Duration Track
––––––––––––––––––––––––––––––––––––––––
DR16 -17.27 dB -38.52 dB 0:06 01-Introduction
DR14 -3.62 dB -25.73 dB 4:41 02-Just You, Just Me
DR14 -4.16 dB -27.94 dB 5:31 03-The Frim Fram Sauce
DR15 -3.98 dB -24.64 dB 6:13 04-This Song Is You
DR18 -5.59 dB -33.75 dB 4:14 05-Isn't It A Pity
DR15 -4.41 dB -33.34 dB 1:04 06-Rhode Island Intro
DR14 -5.19 dB -28.38 dB 3:45 07-Rhode Island
DR19 -6.10 dB -35.28 dB 4:13 08-Ray Kennedy - Library of Congress Story
DR15 -3.77 dB -27.60 dB 5:22 09-Gospel Truth
DR16 -8.31 dB -35.55 dB 3:13 10-Ray Kennedy - Dizzy Gillespie Story
DR14 -2.30 dB -27.52 dB 5:06 11-Tea For Tatum
DR13 -13.44 dB -37.70 dB 0:12 12-James Taylor Intro 1
DR16 -11.04 dB -34.47 dB 3:13 13-Don't Let Me Be Lonely Tonight
DR15 -10.79 dB -36.38 dB 1:03 14-James Taylor Intro 2
DR17 -9.47 dB -32.43 dB 3:50 15-Mean Old Man
DR16 -10.18 dB -32.36 dB 4:13 16-Manhattan
DR13 -14.64 dB -37.68 dB 2:32 17-Rosemary Clooney Story
DR15 -15.71 dB -37.25 dB 3:18 18-Moonlight Becomes You
DR14 -7.37 dB -32.43 dB 0:30 19-Final Intro
DR14 -1.78 dB -26.79 dB 4:21 20-Will You Still Be Mine?
––––––––––––––––––––––––––––––––––––––––

Number of tracks: 20
Official DR value: DR15

Samplerate: 2822400 Hz / PCM Samplerate: 176400 Hz
Channels: 6
Bits per sample: 1
Bitrate: 16934 kbps
Codec: DST64
================================================================================

––––––––––––––––––––––––––––––––––––––––
Analyzed: John Pizarelli Trio / Telarc International Corporation
––––––––––––––––––––––––––––––––––––––––

DR Peak RMS Duration Track
––––––––––––––––––––––––––––––––––––––––
DR14 -8.45 dB -27.10 dB 0:18 01-Introduction
DR15 -4.45 dB -21.97 dB 4:30 02-Three Little Words
DR15 -5.38 dB -26.00 dB 6:02 03-They Can't That Away From Me
DR12 -4.03 dB -20.09 dB 4:27 04-Oh How My Heart Beats For You
DR21 -3.61 dB -29.82 dB 3:10 05-The Day I Found You
DR15 -13.43 dB -33.48 dB 1:42 06-Polliwog Story
DR17 -4.42 dB -26.20 dB 7:39 07-It's Only A Paper Moon
DR13 -4.93 dB -22.45 dB 4:44 08-Stompin At The Savoy
DR13 -12.02 dB -29.47 dB 3:38 09-Better Run Before It's Spring
DR18 -9.58 dB -33.34 dB 2:54 10-Grover Kemble Story
DR14 -1.83 dB -20.56 dB 3:50 11-Headed Out To Vera's
DR16 -7.92 dB -29.43 dB 5:30 12-Baby Medley
DR15 -11.26 dB -32.41 dB 0:57 13-I Like Jersey Best Intro
DR13 -1.69 dB -21.30 dB 8:28 14-I Like Jersey Best
DR13 -1.75 dB -18.65 dB 3:55 15-My Castle's Rockin'
DR13 -4.18 dB -19.91 dB 3:12 16-Baby Just Come Home To Me
––––––––––––––––––––––––––––––––––––––––

Number of tracks: 16
Official DR value: DR15

Samplerate: 2822400 Hz / PCM Samplerate: 176400 Hz
Channels: 2
Bits per sample: 1
Bitrate: 5645 kbps
Codec: DST64
================================================================================

––––––––––––––––––––––––––––––––––––––––
Analyzed: John Pizzarelli Trio / John Pizzarelli Live at Birdland
––––––––––––––––––––––––––––––––––––––––

DR Peak RMS Duration Track
––––––––––––––––––––––––––––––––––––––––
DR16 -17.15 dB -34.69 dB 0:06 01-Introduction
DR14 -3.25 dB -21.64 dB 4:41 02-Just You, Just Me
DR14 -5.52 dB -23.99 dB 5:30 03-The Frim Fram Sauce
DR13 -3.58 dB -20.39 dB 6:13 04-This Song Is You
DR17 -6.87 dB -30.42 dB 4:14 05-Isn't It A Pity
DR15 -8.71 dB -30.44 dB 1:04 06-Rhode Island Intro
DR14 -6.21 dB -24.93 dB 3:45 07-Rhode Island
DR19 -7.48 dB -32.23 dB 4:13 08-Ray Kennedy - Library of Congress Story
DR14 -3.34 dB -23.23 dB 5:22 09-Gospel Truth
DR17 -11.48 dB -32.53 dB 3:13 10-Ray Kennedy - Dizzy Gillespie Story
DR14 -6.03 dB -23.62 dB 5:06 11-Tea For Tatum
DR16 -17.48 dB -35.22 dB 0:11 12-James Taylor Intro 1
DR15 -11.98 dB -31.33 dB 3:13 13-Don't Let Me Be Lonely Tonight
DR16 -13.88 dB -33.52 dB 1:02 14-James Taylor Intro 2
DR15 -10.33 dB -29.16 dB 3:50 15-Mean Old Man
DR14 -11.37 dB -29.09 dB 4:12 16-Manhattan
DR14 -17.62 dB -34.86 dB 2:31 17-Rosemary Clooney Story
DR15 -17.08 dB -34.09 dB 3:18 18-Moonlight Becomes You
DR14 -10.35 dB -29.38 dB 0:30 19-Final Intro
DR15 -3.60 dB -22.63 dB 4:21 20-Will You Still Be Mine?
––––––––––––––––––––––––––––––––––––––––

Number of tracks: 20
Official DR value: DR15

Samplerate: 2822400 Hz / PCM Samplerate: 176400 Hz
Channels: 2
Bits per sample: 1
Bitrate: 5645 kbps
Codec: DST64


Thanks to jasondonovan!
Uncompressed SACD ISO size > 3,83 + 3,78 GB

John Pizzarelli - Dear Mr. Sinatra
>