Tags
Language
Tags

Johnny Cash - The Christmas Spirit (1963) [Official Digital Download 24/96]

Posted By: El Misha
Johnny Cash - The Christmas Spirit (1963) [Official Digital Download 24/96]

Johnny Cash - The Christmas Spirit (1963)
FLAC (tracks) 24-bit/96 kHz | Time - 37:48 | 400 MB
Studio Master, Official Digital Download | Artwork: Front cover

Featured were four original songs by Cash, along with eight covers including takes of "I Heard the Bells on Christmas Day," "Silent Night," "Blue Christmas," and others. This is a solidly enjoyable entry from Cash, and a must-have for die-hard aficionados of the country icon.



Tracklist:

1. The Christmas Spirit
2. I Heard The Bells On Christmas Day
3. Blue Christmas
4. The Gifts They Gave
5. Here Was A Man
6. Christmas As I Knew It
7. Silent Night
8. The Little Drummer Boy
9. Ringing The Bells For Jim
10. We Are The Shepherds
11. Who Kept The Sheep
12. Ballad Of The Harp Weaver

foobar2000 1.4 / Dynamic Range Meter 1.1.1
log date: 2021-12-20 22:02:03

––––––––––––––––––––––––––––––––––––––––
Analyzed: Frank Jones / The Christmas Spirit (1)
Johnny Cash / The Christmas Spirit (2-12)
––––––––––––––––––––––––––––––––––––––––

DR Peak RMS Duration Track
––––––––––––––––––––––––––––––––––––––––
DR14 -0.14 dB -16.60 dB 3:40 06-Christmas As I Knew It
DR13 -0.68 dB -17.07 dB 5:01 01-The Christmas Spirit
DR11 -0.13 dB -13.87 dB 2:31 02-I Heard the Bells on Christmas Day
DR10 -0.24 dB -12.78 dB 2:25 03-Blue Christmas
DR12 -0.02 dB -13.16 dB 3:34 04-The Gifts They Gave
DR12 -0.44 dB -15.98 dB 2:44 05-Here Was a Man
DR12 -0.14 dB -13.75 dB 3:30 07-Silent Night
DR10 -0.14 dB -13.09 dB 2:35 08-The Little Drummer Boy
DR11 -0.14 dB -12.64 dB 2:48 09-Ringing the Bells for Jim
DR12 -0.51 dB -15.33 dB 3:13 10-We Are the Shepherds
DR12 -0.62 dB -16.50 dB 1:58 11-Who Kept the Sheep
DR14 -0.14 dB -16.51 dB 4:20 12-The Ballad of the Harp Weaver
––––––––––––––––––––––––––––––––––––––––

Number of tracks: 12
Official DR value: DR12

Samplerate: 96000 Hz
Channels: 2
Bits per sample: 24
Bitrate: 1413 kbps
Codec: FLAC
================================================================================



Thanks to the Original customer!