Jon Faddis - Remembrances (1998) [Reissue 2003] {2.0 & 5.0} PS3 ISO + Hi-Res FLAC

Posted By: HDAtall
Jon Faddis - Remembrances (1998) [Reissue 2003] {2.0 & 5.0} PS3 ISO + Hi-Res FLAC

Jon Faddis - Remembrances (1998) [Reissue 2003] {2.0 & 5.0}
PS3 Rip | SACD ISO | DST64 2.0 & 5.0 > 1-bit/2.8224 MHz | 67:13 minutes | Scans included | 3,96 GB
or FLAC 2.0 Stereo (converted with foobar2000 to tracks) 24bit/88,2 kHz | Scans included | 1,32 GB
Chesky Records | Features Stereo and Multichannel surround sound

This is an unusual date for Jon Faddis. Doubling on flugelhorn, Faddis avoids his upper register and performs ballads while backed by an ensemble arranged by Carlos Franzetti…

The backup group consists of five reeds, trombone, a french horn, an occasional oboe or English horn player and a rhythm section. Faddis plays lyrically throughout but there are no exciting or stirring moments to be heard on the ten selections which include “Sophisticated Lady,” “Speak Like a Child” “In Your Own Sweet Way” and a medium-tempo “Goodbye.” A well-played and professionally arranged program but the overall results are rather forgettable.

Tracklist:

01. Sophisticated Lady
02. Laura
03. Speak Like a Child
04. Footprints
05. Naima
06. Johnny Bug
07. La Rosa
08. In Your Own Sweet Way
09. Riverside Park
10. Goodbye

Producers: Carlos Franzetti and David Chesky.
Executive Producer: Norman Chesky.
Assistant Producer: Steve Guttenburg.
Recording Engineer: Barry Wolifson.
Assistant Engineer: Sandy Palmer Grassi.
Editing & Mastering: Nick Prout.
Recording Assistants: Dave Windmuller and Doug Melanson.
Music Preparation King Brand Co., Donald Rice, SGM.
Recorded at St. Peter's Episcopal Church in NYC, October 13-15,1997.

foobar2000 1.2.1 / Dynamic Range Meter 1.1.1

––––––––––––––––––––––––––––––––––––––––
Analyzed: Jim Faddis / Remembrances
––––––––––––––––––––––––––––––––––––––––

DR Peak RMS Duration Track
––––––––––––––––––––––––––––––––––––––––
DR11 -6.14 dB -29.04 dB 7:05 01-Sophisticated Lady
DR11 -6.09 dB -29.59 dB 6:07 02-Laura
DR11 -6.21 dB -28.44 dB 7:24 03-Speak Like a Child
DR12 -6.30 dB -30.07 dB 5:54 04-Footprints
DR9 -7.63 dB -28.54 dB 5:59 05-Naima
DR12 -6.33 dB -31.45 dB 6:35 06-Johnny Bug
DR12 -6.16 dB -29.92 dB 6:47 07-La Rosa
DR12 -6.36 dB -30.11 dB 7:06 08-In Your Own Sweet Way
DR11 -6.51 dB -28.55 dB 7:38 09-Riverside Park
DR10 -6.36 dB -28.27 dB 6:38 10-Goodbye
––––––––––––––––––––––––––––––––––––––––

Number of tracks: 10
Official DR value: DR11

Samplerate: 2822400 Hz / PCM Samplerate: 88200 Hz
Channels: 5
Bits per sample: 24
Bitrate: 14112 kbps
Codec: DST64
================================================================================

––––––––––––––––––––––––––––––––––––––––
Analyzed: Jim Faddis / Remembrances
––––––––––––––––––––––––––––––––––––––––

DR Peak RMS Duration Track
––––––––––––––––––––––––––––––––––––––––
DR15 -6.14 dB -25.16 dB 7:05 01-Sophisticated Lady
DR16 -6.09 dB -25.71 dB 6:07 02-Laura
DR14 -6.21 dB -24.55 dB 7:24 03-Speak Like a Child
DR15 -6.30 dB -26.19 dB 5:54 04-Footprints
DR11 -7.63 dB -24.66 dB 5:59 05-Naima
DR16 -6.33 dB -27.55 dB 6:35 06-Johnny Bug
DR15 -6.16 dB -26.05 dB 6:47 07-La Rosa
DR15 -6.36 dB -26.22 dB 7:06 08-In Your Own Sweet Way
DR14 -6.51 dB -24.67 dB 7:38 09-Riverside Park
DR13 -6.36 dB -24.39 dB 6:38 10-Goodbye
––––––––––––––––––––––––––––––––––––––––

Number of tracks: 10
Official DR value: DR15

Samplerate: 2822400 Hz / PCM Samplerate: 88200 Hz
Channels: 2
Bits per sample: 24
Bitrate: 5645 kbps
Codec: DST64


Thanks to grillbrill!
Uncompressed SACD ISO size > 3,74 GB
>
SACD ISO 1
SACD ISO 2
SACD ISO 3
SACD ISO 4

FLAC 1 (Stereo)
FLAC 2 (Stereo)
>