Jon Nakamatsu, Rochester Philharmonic Orchestra - Gershwin: Piano Concerto in F, Rhapsody in Blue, Cuban Overture (2007)

Posted By: HDV
Jon Nakamatsu, Rochester Philharmonic Orchestra -  Gershwin: Piano Concerto in F, Rhapsody in Blue, Cuban Overture (2007)

Jon Nakamatsu, RPO, Jeff Tyzik - Gershwin. Piano Concerto in F, Rhapsody in Blue, Cuban Overture (2007)
FLAC (tracks) 24 bit/88,2 kHz | Time - 61:19 minutes | 1,16 GB
Studio Master, Official Digital Download | Artwork: Digital Booklet

Penned for the concert hall but brimming with the sounds and rhythms of Tin Pan Alley and Broadway, this all-GERSHWIN program features American pianist Jon Nakamatsu in the Piano Concerto in F and the Rhapsody in Blue. For an orchestral encore, Jeff Tyzik leads the Rochester Philharmonic in an exuberant reading of the Cuban Overture.

Tracklist:

01 - Gershwin: Piano Concerto in F: Allegro
02 - Gershwin: Piano Concerto in F: Adagio
03 - Gershwin: Piano Concerto in F: Allegro agitato
04 - Gershwin: Rhapsody in Blue
05 - Gershwin: Cuban Overture

Jon Nakamatsu - piano
Rochester Philharmonic Orchestra, Conducted by Jeff Tyzik.

Analyzed: Jon Nakamatsu, piano / Rochester Philharmonic Orchestra / Jeff Tyzik, conductor / Gershwin: Piano Concerto in F, Rhapsody in Blue, Cuban Overture
––––––––––––––––––––––––––––––––––––––––

DR Peak RMS Duration Track
––––––––––––––––––––––––––––––––––––––––
DR14 0.00 dB -19.31 dB 13:16 01-Gershwin: Piano Concerto in F: Allegro
DR16 0.00 dB -23.26 dB 12:33 02-Gershwin: Piano Concerto in F: Adagio
DR12 0.00 dB -17.52 dB 6:55 03-Gershwin: Piano Concerto in F: Allegro agitato
DR14 0.00 dB -19.75 dB 17:55 04-Gershwin: Rhapsody in Blue
DR14 0.00 dB -18.88 dB 10:40 05-Gershwin: Cuban Overture
––––––––––––––––––––––––––––––––––––––––

Number of tracks: 5
Official DR value: DR14

Samplerate: 88200 Hz
Channels: 2
Bits per sample: 24
Bitrate: 2702 kbps
Codec: FLAC
================================================================================


Thanks to the Original customer!

.