Tags
Language
Tags

Julio Iglesias - Crazy (1994) [Reissue 2015] PS3 ISO + DSD64 + Hi-Res FLAC

Posted By: HDAtall
Julio Iglesias - Crazy (1994) [Reissue 2015] PS3 ISO + DSD64 + Hi-Res FLAC

Julio Iglesias - Crazy (1994) [Reissue 2015]
PS3 Rip | SACD ISO | DSD64 2.0 > 1-bit/2.8224 MHz | 41:43 minutes | Scans included | 1,18 GB
or DSD64 2.0 (from SACD-ISO to Tracks.dsf) > 1-bit/2.8224 MHz | Full Scans included | 1,02 GB
or FLAC (carefully converted & encoded to tracks) 24bit/48 kHz | Full Scans included | 532 MB

The acknowledged king of adult contemporary offers up an album that is chock-full of feel-good ballads. Whether he's covering Sting or Santana, Iglesias manages to deliver the material with the perfect combination of sentiment and showmanship. Some songs, such as "Crazy," the ballad originally made famous by Patsy Cline, are a little bit too gooey, but others, such as a beautifully arranged version of "Mammy Blue," are just gooey enough. The album is not short on guest stars; Dolly Parton's vocals soar on the duet "When You Tell Me That You Love Me." For the contemporary version of Beethoven's "Ode to Joy," the entire London Symphony Orchestra along with the Ambrosian Singers provide a rousing, festive counterpoint to Iglesias' laid-back lead vocals. There is only one song where collaboration doesn't work perfectly: On the cover of Sting's "Fragile," the writer himself performs lead guitar and backing vocals, making the track sound oddly like a karaoke version with an extremely good studio singer. Overall this album is difficult to fault, though. It is beautifully scored, easily accessible to any listener, and performed to perfection in Iglesias' inimitable style. It's liable to sound familiar from the first time you listen to it; and indeed, even if you haven't heard the CD in its entirety before, you've probably heard most of the tracks on a commercial, a radio station, or a compilation of romantic fireside songs.

Tracklist:

01. Crazy
02. Let It Be Me
03. Mammy Blue
04. Fragile
05. Guajira / Oye Como Va
06. When You Tell Me That You Love Me
07. I Keep Telling Myself
08. Pelo Am Or De Uma Mulher (Por El Amor De Una Mujer) (Spanish)
09. Caruso (Spanish)
10. Song Of Joy (English)

foobar2000 1.6.6 / Dynamic Range Meter 1.1.1

––––––––––––––––––––––––––––––––––––––––
Analyzed: Julio Iglesias / Crazy
––––––––––––––––––––––––––––––––––––––––

DR Peak RMS Duration Track
––––––––––––––––––––––––––––––––––––––––
DR11 -5.96 dB -20.18 dB 3:18 01-Crazy (Album Version)
DR11 -5.35 dB -20.26 dB 3:06 02-Let It Be Me
DR10 -6.60 dB -20.20 dB 4:17 03-Mammy Blue (Album Version)
DR11 -6.00 dB -19.64 dB 4:24 04-Fragile (Album Version)
DR10 -5.55 dB -18.12 dB 3:56 05-Guajira / Oye Como Va
DR9 -5.30 dB -17.83 dB 4:01 06-When You Tell Me That You Love Me (Album Version)
DR12 -5.58 dB -20.06 dB 4:18 07-I Keep Telling Myself (Album Version)
DR13 -5.80 dB -21.07 dB 3:54 08-Pelo Am Or De Uma Mulher (Por El Amor De Una Mujer) (Spanish)
DR12 -5.62 dB -19.91 dB 5:50 09-Caruso (Spanish)
DR10 -6.42 dB -20.16 dB 4:40 10-Song Of Joy (English)
––––––––––––––––––––––––––––––––––––––––

Number of tracks: 10
Official DR value: DR11

Samplerate: 2822400 Hz / PCM Samplerate: 176400 Hz
Channels: 2
Bits per sample: 1
Bitrate: 5645 kbps
Codec: DSD64


Thanks to PS³SACD!
Uncompressed SACD ISO size > 1,67 GB
>