Tags
Language
Tags

Julio Iglesias - Starry Night (1990) [Reissue 2015] PS3 ISO + DSD64 + Hi-Res FLAC

Posted By:
Julio Iglesias - Starry Night (1990) [Reissue 2015] PS3 ISO + DSD64 + Hi-Res FLAC

Julio Iglesias - Starry Night (1990) [Reissue 2015]
PS3 Rip | SACD ISO | DSD64 2.0 > 1-bit/2.8224 MHz | 37:11 minutes | Scans included | 1,02 GB
or DSD64 2.0 (from SACD-ISO to Tracks.dsf) > 1-bit/2.8224 MHz | Full Scans included | 913 MB
or FLAC (carefully converted & encoded to tracks) 24bit/48 kHz | Full Scans included | 455 MB

International superstar Julio Iglesias is not only Spain's best selling musical export, but one of the biggest selling Hispanic singers of all time. The debonair crooner and master of the romantic ballad is in his absolute wheelhouse on this 1990 release which features a smooth and life affirming 10-song set of beautiful love songs and ballads. Dreamy renditions of "Mona Lisa," "99 Miles from L.A." and "If You Go Away" truly steal the show here, but all things considered there's really not a bad one in the bunch!

Tracklist:

01. Can't Help Falling in Love
02. And I Love Her
03. Mona Lisa
04. Cryin' Time
05. Yesterday When I Was Young
06. When I Need You
07. 99 Miles from L.A.
08. Vincent (Starry Night)
09. If You Go Away
10. Love Has Been a Friend to Me

foobar2000 1.6.6 / Dynamic Range Meter 1.1.1

––––––––––––––––––––––––––––––––––––––––
Analyzed: Julio Iglesias / Starry Night
––––––––––––––––––––––––––––––––––––––––

DR Peak RMS Duration Track
––––––––––––––––––––––––––––––––––––––––
DR10 -6.26 dB -20.15 dB 3:22 01-Can't Help Falling in Love
DR11 -6.41 dB -20.75 dB 3:15 02-And I Love Her
DR12 -6.37 dB -20.91 dB 3:59 03-Mona Lisa
DR12 -6.38 dB -21.04 dB 3:32 04-Cryin' Time
DR12 -6.48 dB -22.44 dB 3:13 05-Yesterday When I Was Young
DR11 -6.31 dB -20.31 dB 4:19 06-When I Need You
DR12 -6.07 dB -20.86 dB 4:10 07-99 Miles from L.A.
DR14 -6.41 dB -24.05 dB 4:19 08-Vincent (Starry Night)
DR13 -6.47 dB -24.74 dB 3:35 09-If You Go Away
DR13 -6.47 dB -21.58 dB 3:27 10-Love Has Been a Friend to Me
––––––––––––––––––––––––––––––––––––––––

Number of tracks: 10
Official DR value: DR12

Samplerate: 88200 Hz
Channels: 2
Bits per sample: 24
Bitrate: 5645 kbps
Codec: DSD64


Thanks to PS³SACD!
Uncompressed SACD ISO size > 1,49 GB
>