Berliner Philharmoniker, Herbert von Karajan - Tchaikovsky: 6 Symphonies (1979) [Japan 2017] PS3 ISO + Hi-Res FLAC

Posted By: HDAtall
Berliner Philharmoniker, Herbert von Karajan - Tchaikovsky: 6 Symphonies (1979) [Japan 2017] PS3 ISO + Hi-Res FLAC

Herbert von Karajan, Berliner Philharmoniker - Tchaikovsky: 6 Symphonien (1979) [Japan 2017]
PS3 Rip | 3x SACD ISO | DSD64 Stereo > 1-bit/2.8224 MHz | 264:47 minutes | Scans included | 6,8 GB
or FLAC 2.0 Stereo (converted with foobar2000 to tracks) 24bit/96 kHz | Scans included | 5,43 GB

Herbert von Karajan conducts this performance of Tchaikovsky's Six Symphonies by the Berlin Philharmonic Orchestra. Although Karajan recorded the last three symphonies many times, he did not turn to the first three until the end of the 1970s. No doubt the reason these early symphonies sound so fresh is because the Berlin orchestra was not over-familiar with them – this belied by the sheer refinement of the orchestral playing. Recorded at the Philharmonie between October 1975 and February 1979, Karajan's Berliner Philharmoniker cycle is presented on three SHM-SACD, mastered from the analogue recordings, transferred & edited in PCM, then converted to DSD.

Tracklist:

Disc 1 #01. Symphony No.1 In G Minor, Op.13, TH.24 - 1. Dreams Of A Winter Journey (Allegro tranquillo)
Disc 1 #02. Symphony No.1 In G Minor, Op.13, TH.24 - 2. Land Of Desolation, Land Of Mists (Andante cantabile ma non tanto)
Disc 1 #03. Symphony No.1 In G Minor, Op.13, TH.24 - 3. Scherzo (Allegro scherzando giocoso)
Disc 1 #04. Symphony No.1 In G Minor, Op.13, TH.24 - 4. Finale (Andante Lugubre - Allegro moderato - Allegro maestoso - Allegro vivo)
Disc 1 #05. Symphony No.2 In C Minor, Op.17, TH.25 - 1. Andante sostenuto - Allegro vivo
Disc 1 #06. Symphony No.2 In C Minor, Op.17, TH.25 - 2. Andantino marziale, quasi moderato
Disc 1 #07. Symphony No.2 In C Minor, Op.17, TH.25 - 3. Scherzo (Allegro molto vivace - Trio. L'istesso tempo)
Disc 1 #08. Symphony No.2 In C Minor, Op.17, TH.25 - 4. Finale (Moderato assai - Allegro vivo - Presto)

Disc 2 #01. Symphony No.3 In D Major, Op.29, TH.26 - 1. Introduzione e Allegro. Moderato assai (Tempo di marcia funebre)
Disc 2 #02. Symphony No.3 In D Major, Op.29, TH.26 - 2. Alla tedesca. Allegro moderato e semplice
Disc 2 #03. Symphony No.3 In D Major, Op.29, TH.26 - 3. Andante elegiaco
Disc 2 #04. Symphony No.3 In D Major, Op.29, TH.26 - 4. Scherzo. Allegro vivo
Disc 2 #05. Symphony No.3 In D Major, Op.29, TH.26 - 5. Finale. Allegro con fuoco (Tempo di Polacca)
Disc 2 #06. Symphony No.4 In F Minor, Op.36, TH.27 1. Andante sostenuto - Moderato con anima - Moderato assai, quasi Andante - Allegro vivo
Disc 2 #07. Symphony No.4 In F Minor, Op.36, TH.27 2. Andantino in modo di canzone
Disc 2 #08. Symphony No.4 In F Minor, Op.36, TH.27 3. Scherzo. Pizzicato ostinato - Allegro
Disc 2 #09. Symphony No.4 In F Minor, Op.36, TH.27 4. Finale (Allegro con fuoco)

Disc 3 #01. Symphony No.5 In E Minor, Op.64, TH.29 1. Andante - Allegro con anima
Disc 3 #02. Symphony No.5 In E Minor, Op.64, TH.29 2. Andante cantabile, con alcuna licenza - Moderato con anima
Disc 3 #03. Symphony No.5 In E Minor, Op.64, TH.29 3. Valse (Allegro moderato)
Disc 3 #04. Symphony No.5 In E Minor, Op.64, TH.29 4. Finale (Andante maestoso - Allegro vivace)
Disc 3 #05. Symphony No. 6 In B Minor, Op. 74, TH.30 1. Adagio - Allegro non troppo - Andante - Moderato mosso - Andante - Moderato assai - Allegro vivo - Andante come prima - Andante mosso
Disc 3 #06. Symphony No. 6 In B Minor, Op. 74, TH.30 2. Allegro con grazia
Disc 3 #07. Symphony No. 6 In B Minor, Op. 74, TH.30 3. Allegro molto vivace
Disc 3 #08. Symphony No. 6 In B Minor, Op. 74, TH.30 4. Finale (Adagio lamentoso - Andante)

Symphony No. 1 in G minor, Op. 13 "Winter Daydreams" - Recorded on February 20, 1979 at Philharmonie, Berlin.
Symphony No. 2 in C minor, Op. 17 "Little Russian" - Recorded on February 21, 1979 at Philharmonie, Berlin.
Symphony No. 3 in D major, Op. 29 "Polish" - Recorded on February 21, 1979 at Philharmonie, Berlin.
Symphony No. 4 in F minor, Op. 36 - Recorded on December 10, 1976 at Philharmonie, Berlin.
Symphony No. 5 in E minor, Op. 64 - Recorded on October 22, 1975 Philharmonie, Berlin.
Symphony No. 6 in B minor, Op. 74 "Pathétique" - Recorded on May 7, 1976 at Philharmonie, Berlin.

This release mastered from original analogue recordings, transferred & edited in PCM 24/192, then converted to DSD.

foobar2000 1.4.6 / Dynamic Range Meter 1.1.1
log date: 2019-09-17 06:15:52

––––––––––––––––––––––––––––––––––––––––
Analyzed: Herbert von Karajan / Berliner Philharmoniker / Tchaikovsky: The 6 Symphonies (Disc 1)
––––––––––––––––––––––––––––––––––––––––

DR Peak RMS Duration Track
––––––––––––––––––––––––––––––––––––––––
DR13 -7.14 dB -26.67 dB 11:44 01-Symphony No.1 In G Minor, Op.13, TH.24 - 1. Dreams Of A Winter Journey (Allegro tranquillo)
DR15 -7.43 dB -29.96 dB 12:08 02-Symphony No.1 In G Minor, Op.13, TH.24 - 2. Land Of Desolation, Land Of Mists (Andante cantabile ma non tanto)
DR16 -10.90 dB -31.04 dB 8:01 03-Symphony No.1 In G Minor, Op.13, TH.24 - 3. Scherzo (Allegro scherzando giocoso)
DR13 -5.78 dB -24.20 dB 12:59 04-Symphony No.1 In G Minor, Op.13, TH.24 - 4. Finale (Andante Lugubre - Allegro moderato - Allegro maestoso - Allegro vivo)
DR14 -6.02 dB -27.12 dB 11:06 05-Symphony No.2 In C Minor, Op.17, TH.25 - 1. Andante sostenuto - Allegro vivo
DR17 -9.27 dB -31.59 dB 8:06 06-Symphony No.2 In C Minor, Op.17, TH.25 - 2. Andantino marziale, quasi moderato
DR15 -9.44 dB -29.02 dB 5:45 07-Symphony No.2 In C Minor, Op.17, TH.25 - 3. Scherzo (Allegro molto vivace - Trio. L'istesso tempo)
DR13 -5.96 dB -23.17 dB 10:14 08-Symphony No.2 In C Minor, Op.17, TH.25 - 4. Finale (Moderato assai - Allegro vivo - Presto)
––––––––––––––––––––––––––––––––––––––––

Number of tracks: 8
Official DR value: DR14

Samplerate: 2822400 Hz / PCM Samplerate: 176400 Hz
Channels: 2
Bits per sample: 1
Bitrate: 5645 kbps
Codec: DSD64
================================================================================

––––––––––––––––––––––––––––––––––––––––
Analyzed: Herbert von Karajan / Berliner Philharmoniker / Tchaikovsky: The 6 Symphonies (Disc 2)
––––––––––––––––––––––––––––––––––––––––

DR Peak RMS Duration Track
––––––––––––––––––––––––––––––––––––––––
DR13 -5.67 dB -24.23 dB 14:34 01-Symphony No.3 In D Major, Op.29, TH.26 - 1. Introduzione e Allegro. Moderato assai (Tempo di marcia funebre)
DR13 -14.05 dB -30.96 dB 8:18 02-Symphony No.3 In D Major, Op.29, TH.26 - 2. Alla tedesca. Allegro moderato e semplice
DR14 -11.60 dB -29.78 dB 8:11 03-Symphony No.3 In D Major, Op.29, TH.26 - 3. Andante elegiaco
DR14 -11.61 dB -31.31 dB 5:59 04-Symphony No.3 In D Major, Op.29, TH.26 - 4. Scherzo. Allegro vivo
DR11 -5.77 dB -21.71 dB 9:45 05-Symphony No.3 In D Major, Op.29, TH.26 - 5. Finale. Allegro con fuoco (Tempo di Polacca)
DR13 -5.82 dB -24.35 dB 18:48 06-Symphony No.4 In F Minor, Op.36, TH.27 1. Andante sostenuto - Moderato con anima - Moderato assai, quasi Andante - Allegro vivo
DR14 -10.15 dB -29.19 dB 9:08 07-Symphony No.4 In F Minor, Op.36, TH.27 2. Andantino in modo di canzone
DR16 -12.63 dB -31.97 dB 5:50 08-Symphony No.4 In F Minor, Op.36, TH.27 3. Scherzo. Pizzicato ostinato - Allegro
DR13 -5.75 dB -22.79 dB 8:25 09-Symphony No.4 In F Minor, Op.36, TH.27 4. Finale (Allegro con fuoco)
––––––––––––––––––––––––––––––––––––––––

Number of tracks: 9
Official DR value: DR14

Samplerate: 2822400 Hz / PCM Samplerate: 176400 Hz
Channels: 2
Bits per sample: 1
Bitrate: 5645 kbps
Codec: DSD64
================================================================================

––––––––––––––––––––––––––––––––––––––––
Analyzed: Herbert von Karajan / Berliner Philharmoniker / Tchaikovsky: The 6 Symphonies (Disc 3)
––––––––––––––––––––––––––––––––––––––––

DR Peak RMS Duration Track
––––––––––––––––––––––––––––––––––––––––
DR14 -6.16 dB -26.21 dB 15:49 01-Symphony No.5 In E Minor, Op.64, TH.29 1. Andante - Allegro con anima
DR14 -6.28 dB -26.36 dB 14:36 02-Symphony No.5 In E Minor, Op.64, TH.29 2. Andante cantabile, con alcuna licenza - Moderato con anima
DR15 -7.02 dB -30.36 dB 6:35 03-Symphony No.5 In E Minor, Op.64, TH.29 3. Valse (Allegro moderato)
DR12 -5.83 dB -22.36 dB 12:40 04-Symphony No.5 In E Minor, Op.64, TH.29 4. Finale (Andante maestoso - Allegro vivace)
DR13 -5.93 dB -24.52 dB 18:29 05-Symphony No. 6 In B Minor, Op. 74, TH.30 1. Adagio - Allegro non troppo - Andante - Moderato mosso - Andante - Moderato assai - Allegro vivo - Andante come prima - Andante mosso
DR14 -7.09 dB -25.99 dB 9:05 06-Symphony No. 6 In B Minor, Op. 74, TH.30 2. Allegro con grazia
DR13 -5.85 dB -22.90 dB 8:33 07-Symphony No. 6 In B Minor, Op. 74, TH.30 3. Allegro molto vivace
DR13 -5.76 dB -23.90 dB 9:58 08-Symphony No. 6 In B Minor, Op. 74, TH.30 4. Finale (Adagio lamentoso - Andante)
––––––––––––––––––––––––––––––––––––––––

Number of tracks: 8
Official DR value: DR14

Samplerate: 2822400 Hz / PCM Samplerate: 176400 Hz
Channels: 2
Bits per sample: 1
Bitrate: 5645 kbps
Codec: DSD64


Thanks to ManWhoCan!
Uncompressed SACD ISO size > 3,2 + 3,56 + 3,83 GB
>