Tags
Language
Tags

Herbert von Karajan, WP - Tchaikovsky: Symphonies Nos. 4, 5 & 6 (1985) [Japan 2019] PS3 ISO + DSD64 + Hi-Res FLAC

Posted By: HDAtall
Herbert von Karajan, WP - Tchaikovsky: Symphonies Nos. 4, 5 & 6 (1985) [Japan 2019] PS3 ISO + DSD64 + Hi-Res FLAC

Herbert von Karajan, Wiener Phiharmoniker - Tchaikovsky: Symphonies Nos. 4, 5 & 6 (1985) [Japan 2019]
PS3 Rip | SACD ISO | DSD64 2.0 > 1-bit/2.8224 MHz | 137:05 minutes | Scans included | 3,77 GB
or DSD64 2.0 (from SACD-ISO to Tracks.dsf) > 1-bit/2.8224 MHz | Full Scans included | 3,45 GB
or FLAC (carefully converted & encoded to tracks) 24bit/96 kHz | Full Scans included | 2,98 GB
Japanese DSD Remastered Reissue '2019 / Esoteric Company, Japan # ESSG-90147~49

Recordings of such important music entities as the Vienna Philharmonic and Herbert von Karajan are always going to be of importance, and this set is no exception. It highlights a conductor in the twilight of his career with repertoire he was acutely familiar with, and had recorded many, many times. Japanese Esoteric label have produced to be the definitive issue of such recordings.

This recent reissue project by Esoteric, is admittedly a little out of left field. Of the many recordings receiving the audiophile treatment in recent years, one does not hear much about recordings (especially digital) from the 1980s. Listening to a few, one does not have to wonder why. The early digital technology labels were using in the 1980s yielded somewhat unpleasing results to my ears, with recordings that sound rather glassy, with dull strings and somewhat boxy and unrealistic sounding wind instruments. Sure, the dynamics could be stellar thanks to the CD and its lack of potential for tracking errors, but phrasing and texture were sacrificed, at least in the early days. I do not have an original CD or LP of this recording to compare this SACD release to, but I do have a few 80s digital Deutsche Grammophon LPs, and if those are anything to compare, Esoteric has certainly worked wonders with the engineering.

According to their own liner notes, this set was mastered at 96/24bit from an original digital master that was done at Redbook 44/16bit. Getting a good sounding recording on a DSD format out of such a low resolution master is certainly a daunting task.

So, how does this set sound? Well, pretty dark, which is no surprise coming from a Karajan recording, that was his usual standard, especially in his later years. The dynamics are pretty impressive, with the climaxes and percussion hits sounding rather earth-shaking. The problem I run into, is that for some reason the loud sections sound rather boomy and lacking in definition. For instance, whenever the percussion are prominent, the boomyness takes over the soundstage and blurs out any definition in the brass, or orchestra as a whole, you no longer hear instruments, but instead you here “loud”. Also the strings lack the texture here that make them sound like real vibrating instruments in a hall. Particularly, the starts of notes or phrases kind of “fade” in rather than beginning. Finally, in the big sections, the winds sound rather hard, there is a real digital graininess or sibilance that makes the sound rather fatiguing to listen to at concert volume.

All of these problems, I doubt are the fault of Esoteric. It is a label that has consistently put care into its masterings, and this is certainly the best 80s digital recording I have ever heard from Deutsche Grammophon. That being said, I don’t think this recording can escape from the limitations of its birth, which is a harsh early digital sound, mixed with a lack of realistic instrument timbre, particularly noticeable in the string and woodwind sounds. How far can one take such a limited original product? I think this might be the answer to that question. – Review by audiophilia-com

Tracklist

DISC ONE:
01. Symphony No.4 in F minor, Op.36: I. Andante sostenuto - Moderato con anima - Moderato assai, quasi Andante - Allegro vivo
02. Symphony No.4 in F minor, Op.36: II. Andantino in modo di canzone
03. Symphony No.4 in F minor, Op.36: III. Allegro
04. Symphony No.4 in F minor, Op.36: IV. Finale (Allegro con fuoco)

DISC TWO:
01. Symphony No.5 in E minor, Op.64: I. Andante - Allegro con anima
02. Symphony No.5 in E minor, Op.64: II. Andante cantabile, con alcuna licenza - Moderato con anima - Andante mosso - Allegro non troppo - Tempo I
03. Symphony No.5 in E minor, Op.64: III. Valse (Allegro moderato)
04. Symphony No.5 in E minor, Op.64: IV. Finale (Andante maestoso - Allegro vivace - Molto vivace - Moderato assai e molto maestoso - Presto)

DISC THREE:
01. Symphony No.6 in B minor, Op.74 "Pathetique": I. Adagio - Allegro non troppo - Andante - Moderato mosso - Andante - Moderato assai - Allegro vivo - Andante come prima - Andante mosso
02. Symphony No.6 in B minor, Op.74 "Pathetique": II. Allegro con grazia
03. Symphony No.6 in B minor, Op.74 "Pathetique": III. Allegro molto vivace
04. Symphony No.6 in B minor, Op.74 "Pathetique": IV. Finale (Adagio lamentoso - Andante)

Produced by Michel Glotz. Balance Engineer: Günter Hermanns.
Recorded in September 1984 (disc 1), March 1984 (disc 2), January 1984 (disc 3) at Grosser Saal, Musikverein, Wien.
Remastered with the 96kHz/24bit master, that was upcoverted from the original DAT master with the high technology.
Re-Mastering Engineer: Kazuie Sugimoto (carried out on January 27-29, 2019 at JVC Mastering Center)

foobar2000 1.6.7 / Dynamic Range Meter 1.1.1

––––––––––––––––––––––––––––––––––––––––
Analyzed: Herbert von Karajan, Wiener Philharmoniker / Tchaikovsky: Symphonies Nos.4, 5 & 6 "Pathetique"
––––––––––––––––––––––––––––––––––––––––

DR Peak RMS Duration Track
––––––––––––––––––––––––––––––––––––––––
DR12 -5.55 dB -23.01 dB 18:40 01-1. Andante sostenuto - Moderato con anima - Moderato assai, quasi Andante - Allegro vivo [Symphony No.4 in F minor, Op.36]
DR14 -7.58 dB -26.65 dB 10:07 02-2. Andantino in modo di canzone [Symphony No.4 in F minor, Op.36]
DR16 -8.44 dB -29.24 dB 5:43 03-3. Scherzo (Pizzicato ostinato - Allegro) [Symphony No.4 in F minor, Op.36]
DR12 -5.62 dB -22.07 dB 8:40 04-4. Finale (Allegro con fuoco) [Symphony No.4 in F minor, Op.36]
––––––––––––––––––––––––––––––––––––––––

Number of tracks: 4
Official DR value: DR13

Samplerate: 2822400 Hz / PCM Samplerate: 176400 Hz
Channels: 2
Bits per sample: 1
Bitrate: 5645 kbps
Codec: DSD64
================================================================================

––––––––––––––––––––––––––––––––––––––––
Analyzed: Herbert von Karajan, Wiener Philharmoniker / Tchaikovsky: Symphonies Nos.4, 5 & 6 "Pathetique"
––––––––––––––––––––––––––––––––––––––––

DR Peak RMS Duration Track
––––––––––––––––––––––––––––––––––––––––
DR14 -5.84 dB -24.94 dB 15:55 01-1. Andante - Allegro con anima [Symphony No.5 in E minor, Op.64]
DR14 -5.75 dB -25.00 dB 13:40 02-2. Andante cantabile, con alcuna licenza - Moderato con anima - Andante mosso - Allegro non troppo - Tempo I [Symphony No.5 in E minor, Op.64]
DR15 -7.19 dB -28.80 dB 6:31 03-3. Valse (Allegro moderato) [Symphony No.5 in E minor, Op.64]
DR13 -5.64 dB -22.36 dB 12:08 04-4. Finale (Andante maestoso - Allegro vivace - Molto vivace - Moderato assai e molto maestoso - Presto) [Symphony No.5 in E minor, Op.64]
––––––––––––––––––––––––––––––––––––––––

Number of tracks: 4
Official DR value: DR14

Samplerate: 2822400 Hz / PCM Samplerate: 176400 Hz
Channels: 2
Bits per sample: 1
Bitrate: 5645 kbps
Codec: DSD64
================================================================================

––––––––––––––––––––––––––––––––––––––––
Analyzed: Herbert von Karajan, Wiener Philharmoniker / Tchaikovsky: Symphonies Nos.4, 5 & 6 "Pathetique"
––––––––––––––––––––––––––––––––––––––––

DR Peak RMS Duration Track
––––––––––––––––––––––––––––––––––––––––
DR14 -5.54 dB -24.97 dB 18:26 01-1. Adagio - Allegro non troppo - Andante - Moderato mosso - Andante - Moderato assai - Allegro vivo - Andante come prima - Andante mosso [Symphony No.6 in B minor, Op.74 "Pathetique"]
DR14 -9.00 dB -28.32 dB 8:54 02-2. Allegro con grazia [Symphony No.6 in B minor, Op.74 "Pathetique"]
DR12 -5.34 dB -22.07 dB 8:33 03-3. Allegro molto vivace [Symphony No.6 in B minor, Op.74 "Pathetique"]
DR15 -5.80 dB -25.26 dB 9:49 04-4. Finale (Adagio lamentoso - Andante) [Symphony No.6 in B minor, Op.74 "Pathetique"]
––––––––––––––––––––––––––––––––––––––––

Number of tracks: 4
Official DR value: DR14

Samplerate: 2822400 Hz / PCM Samplerate: 176400 Hz
Channels: 2
Bits per sample: 1
Bitrate: 5645 kbps
Codec: DSD64


Thanks to the Original ripper!
Uncompressed SACD ISO size > 1,73 + 1,93 + 1,83 GB
>