Subcategories

Karen Lovely - Fish Outta Water (2017) [FLAC 24/48]

Posted By: HDV
Karen Lovely - Fish Outta Water (2017) [FLAC 24/48]

Karen Lovely - Fish Outta Water (2017)
FLAC (tracks) 24-bit/48 kHz | Time - 48:27 minutes | 580 MB
Based on Official Digital Download 24/96 | Artwork: Front cover

Known for her passionate, driven performances, this powerhouse vocalist delivers a blistering mix of contemporary & old school blues. Her sophomore release, "Still The Rain", was nominated for 3 Blues Music Awards including "Best Contemporary Blues Album", "Best Song" and "Best Contemporary Blues Female Artist" and topped the national blues and roots charts. "Fish Outta Water" is her upcoming 5th studio album.

Award-winning Contemporary Blues Artist Karen Lovely is putting the finishing touches on her 5th album, Fish Outta Water, a swampy, funky mix of all new original Blues and Americana and the follow-up to the critically-acclaimed Ten Miles of Bad Road.

On Fish Outta Water, Lovely has continued the advocacy and outreach she started with her previous albums, Still the Rain, and Ten Miles of Bad Road, by writing songs that raise awareness about important social issues like domestic violence, sexual assault, homelessness, suicide, mental health and addiction and because she believes in a zero tolerance world, 10% of every dollar raised over her Pledge Music goal will go to RAINN, the national organization dedicated to ending domestic violence and sexual assault.

Tracklist:

01 - Fish Outta Water
02 - Under the Midnight Sun
03 - Twist My Fate
04 - Waking Up The Dead
05 - Big Black Cadillac
06 - Everything Means Nothing
07 - Hades' Bride (There Was A Time)
08 - Molotov Cocktails
09 - Next Time
10 - Nice and Easy
11 - Punk Rock Johnny Cash
12 - The River's Wide

Produced, Engineered & Mixed by Eric Corne.
Recorded at Kingsize Soundlabs, Eagle Rock California.
Mastered by Mark Chalecki and Eric Corne, Little Red Book Mastering, Eagle Rock CA.

Musicians:
Karen Lovely - Vocals
Rick Holmstrom - Guitar (1,2,3,5,6)
Doug Pettibone - Electric and Acoustic Guitars (4,8,9,10,12)
Taras Prodaniuk - Acoustic & Electric Bass
Matt Tecu - Drums & Percussion

additional musicians:
Ben Rice - Guitar and Dobro (6,11)
Eamon Ryland - Slide Guitar (6)
Al Bonhomme - Guitar and Mandolin (7)
Sasha Smith - Piano and Wurlitzer (2,3)
Skip Edwards - B3 and Farfisa (1,6)

Karen Lovely - Fish Outta Water (2017) [FLAC 24/48]
^ Screenshot above is from the Original "24/96" digital download. ^
This 24/48 release was re-sampled with iZotope RX4. No additional processing was used.


Analyzed: Karen Lovely / Fish Outta Water
––––––––––––––––––––––––––––––––––––––––

DR Peak RMS Duration Track
––––––––––––––––––––––––––––––––––––––––
DR7 -0.45 dB -8.52 dB 3:50 01-Fish Outta Water
DR7 -0.17 dB -8.69 dB 3:40 02-Under the Midnight Sun
DR7 -0.28 dB -9.32 dB 4:01 03-Twist My Fate
DR7 -0.17 dB -8.13 dB 3:33 04-Waking Up The Dead
DR7 -0.18 dB -8.77 dB 4:27 05-Big Black Cadillac
DR7 -0.18 dB -9.50 dB 4:36 06-Everything Means Nothing
DR7 -0.44 dB -9.97 dB 3:15 07-Hades' Bride (There Was A Time)
DR7 -0.24 dB -8.78 dB 4:33 08-Molotov Cocktails
DR7 -0.26 dB -8.58 dB 3:50 09-Next Time
DR6 -0.26 dB -7.73 dB 4:59 10-Nice and Easy
DR8 -0.40 dB -9.98 dB 4:21 11-Punk Rock Johnny Cash
DR7 -0.36 dB -9.00 dB 3:22 12-The River's Wide
––––––––––––––––––––––––––––––––––––––––

Number of tracks: 12
Official DR value: DR7

Samplerate: 48000 Hz
Channels: 2
Bits per sample: 24
Bitrate: 1591 kbps
Codec: FLAC
================================================================================


Thanks to the Original customer!