Tags
Language
Tags

Kari Bremnes - 11 ubesvarte Anrop (2002) [Official Digital Download]

Posted By: HDV
Kari Bremnes - 11 ubesvarte Anrop (2002) [Official Digital Download]

Kari Bremnes - 11 Ubesvarte Anrop (2002)
FLAC (tracks) 24-bit/44,1 kHz | Time - 42:10 minutes | 461 MB
Studio Master, Official Digital Download | Artwork: Front cover

Kari Bremnes is a Norwegian singer and songwriter from the Lofoten Islands, based in Oslo. Nordic, European, open, powerful, personal and melancholic - are the words that describe Kari's music. "11 ubesvarte Anrop" is her ninth studio album.

Kari has written all the lyrics and most of the music. Petter Henriksen (who wrote the songs for "Mitt ville hjerte" (My Wild Heart) from 1987 and "Blå krukke" (Blue Urn) from 1989) has written two of the songs. Arrangements and production are by Bengt Egil Hanssen, while Erik Hillestad has produced the vocals. In addition to Bengt Egil Hanssen on keyboards, the band includes Børge Petersen Øverleir on guitars, Arnfinn Bergrabb on drums, Gjermund Silset on bass and Nils Petter Molvær on trumpet. "You'd have to be here" has exceptionally strong and intricate lyrics with beautiful melodies over a hard-hitting beat; familiar territory for Kari, only this time with a keener edge and a sharper focus. The record has been mixed by Ulf Holand and recorded at Lydlab and Studio Nordraak.

Tracklist:

01 - Du Skulle Vært Her
02 - Beskyttelse
03 - Et Anna Sted
04 - Zarepta
05 - Fantastisk Allerede
06 - Kontroll
07 - Lys Anorakk
08 - Klar
09 - Vals
10 - Finn Veien, Engel
11 - Tia Det Må Ta

Produced by Bengt Hanssen. Engineered by George Tanderø.

Musicians:
Kari Bremnes - vocals
Nils Petter Molvær - trumpet
Stig-Ove Ose - viola
Bengt Hanssen, piano - keyboards
Børge Petersen-Øverleir - guitar
Gjermund Silset - bass
Arnfinn Bergrabb - drums

Analyzed: Kari Bremnes / 11 ubesvarte Anrop
––––––––––––––––––––––––––––––––––––––––

DR Peak RMS Duration Track
––––––––––––––––––––––––––––––––––––––––
DR7 -0.10 dB -8.53 dB 4:17 01-Du Skulle Vært Her
DR10 -0.40 dB -11.70 dB 3:43 02-Beskyttelse
DR9 -0.10 dB -10.12 dB 4:11 03-Et Anna Sted
DR10 -0.10 dB -11.65 dB 3:49 04-Zarepta
DR10 -0.10 dB -10.73 dB 3:40 05-Fantastisk Allerede
DR10 -0.10 dB -11.34 dB 4:18 06-Kontroll
DR11 -1.35 dB -16.02 dB 2:22 07-Lys Anorakk
DR8 -0.10 dB -9.76 dB 4:11 08-Klar
DR10 -0.10 dB -11.24 dB 3:55 09-Vals
DR9 -0.10 dB -9.83 dB 3:21 10-Finn Veien, Engel
DR10 -0.10 dB -11.39 dB 4:22 11-Tia Det Må Ta
––––––––––––––––––––––––––––––––––––––––

Number of tracks: 11
Official DR value: DR9

Samplerate: 44100 Hz
Channels: 2
Bits per sample: 24
Bitrate: 1413 kbps
Codec: FLAC
================================================================================


Thanks to the Original customer!