Tags
Language
Tags

Kari Bremnes - Det vi har (2017) [Official Digital Download 24-bit/96 kHz]

Posted By: HDV
Kari Bremnes - Det vi har (2017) [Official Digital Download 24-bit/96 kHz]

Kari Bremnes - Det Vi Har (2017)
FLAC (tracks) 24-bit/96 kHz | Time - 46:53 minutes | 965 MB
Studio Master, Official Digital Download | Artwork: Front cover

Kari Bremnes is a Norwegian singer and songwriter from the Lofoten Islands, based in Oslo. Nordic, European, open, powerful, personal and melancholic – are the words that describe Kari's music. From light to dark and raw, but always deeply connected to mystery of life and human fate. "Det vi har" (Eng: What We Have) is her last album and biggest tour with over 60 concerts in Norway and Germany.



Tracklist:

01 - Det kunne skjedd
02 - Glem ikkje
03 - Det e min sønn
04 - Kanskje
05 - Rim sin stemme
06 - Det må være orden
07 - Det einaste vi ville
08 - Tog vi ikkje tok
09 - Det som ennu ikkje har et navn
10 - En sang fra andre sia
11 - Spor

Produced & Engineered by Bengt E. Hanssen.

Musicians:
Kari Bremnes - vocals
Bengt E. Hanssen - piano, vocals
Børge Petersen-Øverleir - guitar
Hallgrim Bratberg - guitar
Petter Unstad - bass, vocals
Børre Flyen - drums

Analyzed: Kari Bremnes / Det vi har
––––––––––––––––––––––––––––––––––––––––

DR Peak RMS Duration Track
––––––––––––––––––––––––––––––––––––––––
DR10 -0.30 dB -14.67 dB 3:57 01-Det kunne skjedd
DR9 -0.30 dB -10.59 dB 4:45 02-Glem ikkje
DR8 -0.30 dB -11.09 dB 4:13 03-Det e min sønn
DR9 -0.30 dB -11.72 dB 4:08 04-Kanskje
DR10 -0.30 dB -11.77 dB 3:49 05-Rim sin stemme
DR8 -0.30 dB -10.47 dB 4:00 06-Det må være orden
DR9 -0.30 dB -12.20 dB 4:27 07-Det einaste vi ville
DR8 -0.30 dB -10.91 dB 4:15 08-Tog vi ikkje tok
DR10 -0.30 dB -12.18 dB 3:39 09-Det som ennu ikkje har et navn
DR10 -0.30 dB -12.33 dB 4:02 10-En sang fra andre sia
DR8 -0.30 dB -9.55 dB 5:38 11-Spor
––––––––––––––––––––––––––––––––––––––––

Number of tracks: 11
Official DR value: DR9

Samplerate: 96000 Hz
Channels: 2
Bits per sample: 24
Bitrate: 2918 kbps
Codec: FLAC
================================================================================


Thanks to the Original customer!