Tags
Language
Tags

Kari Bremnes - Over en by (2005/2006) [Official Digital Download 24-bit/96kHz]

Posted By: HDV
Kari Bremnes - Over en by (2005/2006) [Official Digital Download 24-bit/96kHz]

Kari Bremnes - Over en by (2005/2006)
FLAC (tracks) 24-bit/96 kHz | Time - 48:53 minutes | 1008 MB
Studio Master, Official Digital Download | Artwork: Front cover

Kari Bremnes is a Norwegian singer and songwriter from the Lofoten Islands, based in Oslo. Nordic, European, open, powerful, personal and melancholic - are the words that describe Kari's music. From light to dark and raw, but always deeply connected to mystery of life and human fate. For "Over en by" she has written all the lyrics and most of the music.


On this album Kari Bremnes has shifted into a new gear. The essence of her art as a singer/songwriter is more brilliant and inspiring than ever, letting you sense the sparkling energy bubbling underneath her cool and elegantly understated observations on life, time, love and disguise. The songs on her new album reveal the artist's uncompromising approach to content and style, and often break away from the traditional form of verse following refrain. Combining this with her new band, she has created a fresh new form that cannot be easily categorised. She gives us poetic, pensive, small musical worlds ¿ the feeling is more than ever of the shimmering beauty of Kari Bremnes' music.

Tracklist:

01 - Ansiktet Te Månen
02 - En Stemme I Athen
03 - Per Og Pål Og Janus
04 - Stjernelause Døgn
05 - Det Skjer Nå Med Oss Alle Underveis
06 - Sov Du Eller
07 - Han E En Katastrofe
08 - Litt Happiness Kan Ikkje Skade
09 - Og Dagen Den Va Sånn
10 - Sommerkjoledyr
11 - Det Skjer Nå Med Oss Alle Underveis 2
12 - Hvis Du Kommer Tebake Igjen
13 - Over en by
14 - Bestandig Elska Høsten

Produced by Bengt Egil Hanssen.
Recorded at Studio Nordraak & Rainbow Studio.

Musicians:
Kari Bremnes - vocals
Arve Henriksen - trumpet
Nils Økland - violin
Bengt Hanssen - keyboards
Hallgrim Brattberg - guitar
Børge Pettersen-Øverleir - guitar
Sondre Meisfjord - bass
Helge Norbakken - drums

Analyzed: Kari Bremnes / Over en by
––––––––––––––––––––––––––––––––––––––––

DR Peak RMS Duration Track
––––––––––––––––––––––––––––––––––––––––
DR11 0.00 dB -13.24 dB 3:57 01-Ansiktet Te Månen
DR12 0.00 dB -14.90 dB 3:28 02-En Stemme I Athen
DR13 0.00 dB -14.44 dB 3:43 03-Per Og Pål Og Janus
DR11 0.00 dB -13.82 dB 3:37 04-Stjernelause Døgn
DR14 -0.01 dB -18.63 dB 2:21 05-Det Skjer Nå Med Oss Alle Underveis
DR13 0.00 dB -15.61 dB 3:59 06-Sov Du Eller
DR13 0.00 dB -15.31 dB 3:24 07-Han E En Katastrofe
DR13 0.00 dB -15.09 dB 3:16 08-Litt Happiness Kan Ikkje Skade
DR12 0.00 dB -15.30 dB 3:40 09-Og Dagen Den Va Sånn
DR13 0.00 dB -14.47 dB 3:34 10-Sommerkjoledyr
DR10 0.00 dB -12.46 dB 3:21 11-Det Skjer Nå Med Oss Alle Underveis 2
DR13 -0.60 dB -15.46 dB 3:22 12-Hvis Du Kommer Tebake Igjen
DR12 0.00 dB -15.35 dB 3:53 13-Over en by
DR12 0.00 dB -13.82 dB 3:19 14-Bestandig Elska Høsten
––––––––––––––––––––––––––––––––––––––––

Number of tracks: 14
Official DR value: DR12

Samplerate: 96000 Hz
Channels: 2
Bits per sample: 24
Bitrate: 2682 kbps
Codec: FLAC
================================================================================


Thanks to the Original customer!