Tags
Language
Tags

Kari Bremnes - Og sa kom resten av livet (2012) [Official Digital Download 24bit/96kHz]

Posted By: HDV
Kari Bremnes - Og sa kom resten av livet (2012) [Official Digital Download 24bit/96kHz]

Kari Bremnes - Og så kom resten av livet (2012)
FLAC (tracks) 24 bit/96 kHz | Time - 44:19 minutes | 906 MB
Studio Master, Official Digital Download | Artwork: Front cover

The Golden voice of Norway:
Norwegian born singer and songwriter Kari Bremnes was born in 1956 in Lofoten. Her career as a performer was delayed by her desire to finish university (she earned a Master's Degree) and a short stint as a journalist. Eventually, the call of the stage won out, and in 1987 she released her first album, Mitt Ville Hjerte. From there, Bremnes went on to release more than ten full-lengths over the next 20 years, as well as a number of successful — in Norway and in other European nations — singles.

Tracklist:

01 - E du nord
02 - Like før dagen går ned
03 - Trist når du får tenkt dæ om
04 - Mann på rommet
05 - Denne veien
06 - På kanten av et liv
07 - Lysestake i Sannergata
08 - Med sin nydelige kone
09 - Nytt imellom oss
10 - Håpet
11 - Tidlig

Analyzed: Kari Bremnes / Og så kom resten av livet
––––––––––––––––––––––––––––––––––––––––

DR Peak RMS Duration Track
––––––––––––––––––––––––––––––––––––––––
DR8 -0.19 dB -9.70 dB 5:08 01-E du nord
DR9 0.00 dB -10.73 dB 3:51 02-Like før dagen går ned
DR10 0.00 dB -11.51 dB 4:13 03-Trist når du får tenkt dæ om
DR8 0.00 dB -9.29 dB 3:10 04-Mann på rommet
DR11 -0.19 dB -13.06 dB 4:23 05-Denne veien
DR10 0.00 dB -11.66 dB 4:53 06-På kanten av et liv
DR8 0.00 dB -9.35 dB 3:04 07-Lysestake i Sannergata
DR9 0.00 dB -10.64 dB 3:49 08-Med sin nydelige kone
DR11 -0.27 dB -13.01 dB 4:23 09-Nytt imellom oss
DR8 -0.19 dB -11.00 dB 3:39 10-Håpet
DR10 -0.20 dB -10.92 dB 3:44 11-Tidlig
––––––––––––––––––––––––––––––––––––––––

Number of tracks: 11
Official DR value: DR9

Samplerate: 96000 Hz
Channels: 2
Bits per sample: 24
Bitrate: 2534 kbps
Codec: FLAC
================================================================================


Thanks to the Original customer!