Kate Smith - The Kate Smith Anniversary Album (1966/2016) [Official Digital Download 24-bit/192kHz]

Posted By: HDV
Kate Smith - The Kate Smith Anniversary Album (1966/2016) [Official Digital Download 24-bit/192kHz]

Kate Smith - The Kate Smith Anniversary Album (1966/2016)
FLAC (tracks) 24-bit/192 kHz | Time - 35:41 minutes | 1,37 GB
Studio Master, Official Digital Download | Artwork: Front cover

Kathryn Elizabeth Smith, known professionally as Kate Smith and The First Lady of Radio, was an American singer, a contralto, best known for her rendition of Irving Berlin's "God Bless America". She had a radio, television, and recording career spanning five decades, which reached its pinnacle in the 1940s. Smith became known as The Songbird of the South after her enduring popularity during World War II and contribution to American culture and patriotism. "The Kate Smith Anniversary Album" is her 1966 album released for RCA Victor label.

Tracklist:

01 - Medley: When the Moon Comes Over the Mountain / Seems Like Old Times / All the Things You Are
02 - Medley: What's New / Wrap Your Troubles in Dreams (And Dream Your Troubles Away) / Long Ago
03 - Medley: September in the Rain / A Nightingale Sang in Berkeley Square / The Old Lamplighter
05 - Medley: Symphony / I Didn't Know What Time It Was / Don't Fence Me In
06 - Medley: Somebody Else Is Taking My Place / That Old Feeling / There Goes That Song Again
07 - Medley: Once In a While / You'd Be So Nice to Come Home To / Some Sunday Morning
08 - Medley: Deep Purple / Along the Santa Fe Trail / Don't Take Your Love from Me

Analyzed: Kate Smith / The Kate Smith Anniversary Album
––––––––––––––––––––––––––––––––––––––––

DR Peak RMS Duration Track
––––––––––––––––––––––––––––––––––––––––
DR10 -0.76 dB -13.68 dB 4:42 01-Medley: When the Moon Comes Over the Mountain / Seems Like Old Times / All the Things You Are
DR11 -0.85 dB -15.69 dB 5:26 02-Medley: What's New / Wrap Your Troubles in Dreams (And Dream Your Troubles Away) / Long Ago
DR11 -0.76 dB -15.70 dB 5:46 03-Medley: September in the Rain / A Nightingale Sang in Berkeley Square / The Old Lamplighter
DR10 -0.02 dB -13.18 dB 5:12 05-Medley: Symphony / I Didn't Know What Time It Was / Don't Fence Me In
DR11 -0.02 dB -13.97 dB 4:38 06-Medley: Somebody Else Is Taking My Place / That Old Feeling / There Goes That Song Again
DR11 -0.02 dB -13.57 dB 4:50 07-Medley: Once In a While / You'd Be So Nice to Come Home To / Some Sunday Morning
DR10 -0.02 dB -13.38 dB 5:08 08-Medley: Deep Purple / Along the Santa Fe Trail / Don't Take Your Love from Me
––––––––––––––––––––––––––––––––––––––––

Number of tracks: 7
Official DR value: DR11

Samplerate: 192000 Hz
Channels: 2
Bits per sample: 24
Bitrate: 4419 kbps
Codec: FLAC
================================================================================


Thanks to the Original customer!