Kenichi Tsunoda Big Band - Mixer's Lab Sound Series, Volume 2 (2017) [Official Digital Download - DXD 24/384]

Posted By: HDV
Kenichi Tsunoda Big Band - Mixer's Lab Sound Series, Volume 2 (2017) [Official Digital Download - DXD 24/384]

Kenichi Tsunoda Big Band - Mixer's Lab Sound Series - Vol.2 (2017)
FLAC (tracks) 24-bit/384 kHz | Time - 43:39 minutes | 2,54 GB
or FLAC (tracks) 24-bit/192 kHz | Time - 43:39 minutes | 1,52 GB
Studio Master, Official Digital Download | Artwork: Front cover

Arranger Kenichi Tsunoda's big band has been one of the top jazz orchestras in Japan since its formation in 1990. This set is particularly impressive for the wide range of the arrangements, the band's musicianship, and the individual solos. This release was recorded in Extreme High Deninition format.

Please enjoy the rawness of the ultimate analog board "Big Band Sound". The analog cutting of this work, which is thoroughly concerned with sound so far, uses only the outer periphery with good sound. And when selecting the format of the mixdown master sound source, the analog half-inch master tape and the high-res digital master are thoroughly compared and auditioned. As a result, due to the musicality and overwhelming low-frequency dynamics of this song, the 384kHz 32bit digital master has been adopted to 24 bit. Please enjoy the sound of the analog record collection that stereo sound delivers with confidence.

Tracklist:

01 - Manteca
02 - In A Sentimental Mood
03 - Smile
04 - A Night In Tunisia
05 - Caravan
06 - Sing Sing Sing
07 - Moonlight Serenade
08 - Memories Of You
09 - Take Five
10 - Li'l Darlin

Analyzed: Kenichi Tsunoda Big Band / Mixer's Lab Sound Series Vol.2
––––––––––––––––––––––––––––––––––––––––

DR Peak RMS Duration Track
––––––––––––––––––––––––––––––––––––––––
DR15 -1.28 dB -18.77 dB 5:07 01-Manteca
DR16 -2.87 dB -22.51 dB 4:06 02-In A Sentimental Mood
DR13 -5.40 dB -21.21 dB 3:42 03-Smile
DR15 -2.38 dB -20.26 dB 4:22 04-A Night in Tunisia
DR14 -3.38 dB -19.81 dB 4:26 05-Caravan
DR14 -2.61 dB -18.42 dB 5:23 06-Sing Sing Sing
DR14 -5.18 dB -21.72 dB 3:31 07-Moonlight Serenade
DR13 -3.82 dB -21.52 dB 3:31 08-Memories Of You
DR14 -4.68 dB -20.48 dB 4:50 09-Take Five
DR12 -5.19 dB -21.25 dB 4:39 10-Li'l Darlin
––––––––––––––––––––––––––––––––––––––––

Number of tracks: 10
Official DR value: DR14

Samplerate: 384000 Hz
Channels: 2
Bits per sample: 24
Bitrate: 7945 kbps
Codec: FLAC
================================================================================



Thanks to the Original customer!