Tags
Language
Tags

The Kinks - Low Budget (1979) [MFSL 2003] PS3 ISO + DSD64 + Hi-Res FLAC

Posted By: HDAtall
The Kinks - Low Budget (1979) [MFSL 2003] PS3 ISO + DSD64 + Hi-Res FLAC

The Kinks - Low Budget (1979) [MFSL 2003]
PS3 Rip | SACD ISO | DSD64 2.0 > 1-bit/2.8224 MHz | 59:18 minutes | Scans included | 1,91 GB
or DSD64 2.0 (from SACD-ISO to Tracks.dsf) > 1-bit/2.8224 MHz | Full Scans included | 1,71 GB
or FLAC (carefully converted & encoded to tracks) 24bit/88,2 kHz | Full Scans included | 1,28 GB
Mobile Fidelity Sound Lab # UDSACD 2008

Low Budget is the eighteenth studio album by English rock group the Kinks, released in 1979. Following the minor success of their 1978 album Misfits, the band recorded the majority of the album in New York rather than London. Unlike the more nostalgic themes of many Kinks albums prior to Low Budget, many of the album's songs allude to current events of the time. Musically, the album is a continuation of the band's "arena rock" phase, resulting in a more rock-based sound and more modern production techniques.

Low Budget doesn't have a narrative like Preservation or Soap Opera, but Ray Davies cleverly designed the album as a sly satire of the recession and oil crisis that gripped America in the late '70s – thereby satisfying his need to be a wry social commentator while giving American audiences a hook to identify with. It was a clever move that worked; not only did Low Budget become their highest-charting American album (not counting the 1966 Greatest Hits compilation), but it was also a fine set of arena rock, one of the better mainstream hard rock albums of its time. And it certainly was of its time – so much so that many of the concerns and production techniques have dated quite a bit in the decades since its initial release. Nevertheless, that gives the album a certain charm, since it now plays like a time capsule, a snapshot of what hard rock sounded like at the close of the '70s. Perhaps not so coincidentally, Davies' songwriting fluctuates throughout the album, since it's dictated as much by commercial as artistic concerns, but the moments when he manages to balance the two impulses – as on the disco-fueled "(Wish I Could Fly Like) Superman," the vaudevillian "Low Budget," "A Gallon of Gas," the roaring "Attitude" (possibly their best hard rocker of the era, by the way), and "Catch Me Now I'm Falling," where Davies takes on the persona of America itself – are irresistible. Low Budget may not have the depth of, say, Arthur or Village Green, but it's a terrifically entertaining testament to their skills as a professional rock band and Davies' savvy as a commercial songwriter.

Tracklist:

01. Attitude
02. Catch Me Now I'm Falling
03. Pressure
04. National Health
05. (Wish I Could Fly Like) Superman
06. Low Budget
07. In A Space
08. Little Bit Of Emotion
09. A Gallon Of Gas
10. Misery
11. Moving Pictures
12. A Gallon Of Gas (U.S. single extended edit)
13. Catch Me Now I'm Falling (original extended edit)
14. (Wish I Could Fly Like) Superman (disco mix extended edit)

Mastered by Shawn R. Britton at Mobile Fidelity Sound Lab, Sebastopol, CA.

foobar2000 1.6.7 / Dynamic Range Meter 1.1.1

––––––––––––––––––––––––––––––––––––––––
Analyzed: The Kinks / Low Budget
––––––––––––––––––––––––––––––––––––––––

DR Peak RMS Duration Track
––––––––––––––––––––––––––––––––––––––––
DR8 -3.71 dB -13.83 dB 3:48 01-Attitude
DR9 -3.47 dB -14.85 dB 5:58 02-Catch Me Now I'm Falling
DR7 -2.80 dB -11.95 dB 2:26 03-Pressure
DR9 -2.89 dB -14.74 dB 4:03 04-National Health
DR8 -2.82 dB -12.54 dB 3:35 05-(Wish I Could Fly Like) Superman
DR9 -2.54 dB -13.94 dB 3:48 06-Low Budget
DR10 -2.95 dB -15.17 dB 3:45 07-In A Space
DR12 -2.78 dB -17.38 dB 4:51 08-Little Bit Of Emotion
DR9 -3.75 dB -15.01 dB 3:49 09-A Gallon Of Gas
DR8 -3.50 dB -12.66 dB 2:57 10-Misery
DR10 -3.72 dB -15.92 dB 3:42 11-Moving Pictures
DR12 -3.42 dB -17.20 dB 3:49 12-A Gallon Of Gas (U.S. single extended edit)
DR12 -3.76 dB -17.31 dB 6:47 13-Catch Me Now I'm Falling (original extended edit)
DR12 -2.87 dB -16.26 dB 5:59 14-(Wish I Could Fly Like) Superman (disco mix extended edit)
––––––––––––––––––––––––––––––––––––––––

Number of tracks: 14
Official DR value: DR10

Samplerate: 2822400 Hz / PCM Samplerate: 176400 Hz
Channels: 2
Bits per sample: 1
Bitrate: 5645 kbps
Codec: DSD64


Thanks to PS³SACD!
Uncompressed SACD ISO size > 2,38 GB
>