KISS - Carnival Of Souls - (1996) - (Mercury PLP-P 18268) - Vinyl - {US Promotional Picture Disc} 24-Bit/96kHz + 16-Bit/44kHz

Posted By: vinylhound
KISS - Carnival Of Souls - (1996) - (Mercury PLP-P 18268) - Vinyl - {US Promotional Picture Disc} 24-Bit/96kHz + 16-Bit/44kHz

KISS - Carnival Of Souls (1996)
vinyl rip in 24/96 & 16/44.1 | 633 MB & 380 MB | FLAC | no cue or log (vinyl)
DR Analysis | FSonic & FF | Full LP Artwork | US Promotional Only Picture Disc
Genre: Rock | Mercury Records ~ PLP-P 18268

Carnival Of Souls are the final sessions recorded by Eric Singer & Bruce Kulick after KISS had decided to reunite the four original members. This picture disc is the only vinyl pressing of the album to date. Very rare, released for promotional use only, never released on vinyl to the public. The picture disc was sent out for promotion prior to the release of the album. This would account for the date printed on the disc being 1996 even though the album wouldn't officially be released until 1997. This would also be the reason for the songs being titled differently than the official CD. The running order also doesn't match the CD. All of this would indicate that the promo picture disc was a very early version of the album. I have included scans of both sides.

Track Listing

Side 1

1. Hate
2. Rain (Down On Me)
3. Tell Me
4. Childhood's End
5. I Will Be There
6. The Jungle

Side 2

1. Seduction Of The Innocent
2. It Never Ends
3. In My Head
4. (Take A Look) In The Mirror
5. You Confess
6. I Walk Alone



Technics SL-1200MK2 Turntable
Shure V15VxMR Cartridge
LP Gear SHVN5xMR Super Analogue Stylus
Sonic Bliss Audiophile Turntable Mat
Custom built, all tube phono stage
Creative 0404 USB @ 24 bit / 96khz
Adobe Audition 3.0 for recording software
JBL LSR series studio monitors / subwoofer for playback listening
iZotope RX Advanced 2.02 for any cleaning needed (all done manually)
Adobe Photoshop for scans
mp3tag 2.49 for file tagging
Easy CD-DA Extractor Ultimate 10 v2011.3 for converting files



––––––––––––––––––––––––––––––––––––––––
Analyzed: KISS / Carnival Of Souls
––––––––––––––––––––––––––––––––––––––––

DR Peak RMS Duration Track
––––––––––––––––––––––––––––––––––––––––
DR11 -0.05 dB -13.58 dB 4:36 01-Hate
DR11 -0.05 dB -12.78 dB 4:47 02-Rain (Down On Me)
DR11 -0.05 dB -13.72 dB 4:58 03-Tell Me
DR10 -0.05 dB -12.48 dB 4:21 04-Childhood's End
DR10 -0.05 dB -12.67 dB 3:49 05-I Will Be There
DR11 -0.05 dB -13.53 dB 6:50 06-The Jungle
DR11 -0.05 dB -13.04 dB 5:16 07-Seduction Of The Innocent
DR10 -0.05 dB -12.39 dB 5:42 08-It Never Ends
DR11 -0.05 dB -13.02 dB 4:00 09-In My Head
DR10 -0.05 dB -12.49 dB 5:23 10-(Take A Look) In The Mirror
DR12 -0.05 dB -13.25 dB 4:25 11-You Confess
DR12 -0.05 dB -14.25 dB 6:08 12-I Walk Alone
––––––––––––––––––––––––––––––––––––––––

Number of tracks: 12
Official DR value: DR11

Samplerate: 96000 Hz
Channels: 2
Bits per sample: 24
Bitrate: 1239 kbps
Codec: FLAC

KISS - Carnival Of Souls - (1996) - (Mercury PLP-P 18268) - Vinyl - {US Promotional Picture Disc} 24-Bit/96kHz + 16-Bit/44kHz


The files are interchangeable!!!

Please enjoy hearing Carnival Of Souls as it should be heard from the original vinyl!!!
Download

FileFactory

Password

vinyl