Kitaro - Daylight, Moonlight: Live in Yakushiji (2x SACD, 2003) MCH PS3 ISO + DSD64 + Hi-Res FLAC

Posted By: HDAtall
Kitaro - Daylight, Moonlight: Live in Yakushiji (2x SACD, 2003) MCH PS3 ISO + DSD64 + Hi-Res FLAC

Kitaro - Daylight, Moonlight: Live in Yakushiji (2003)
PS3 Rip | 2x SACD ISO | DST64 2.0 & 5.1 > 1-bit/2.8224 MHz | 113:10 minutes | Scans included | 7,16 GB
or DSD64 2.0 Stereo (from SACD-ISO to Tracks.dsf) > 1-bit/2.8224 MHz | 112:59 min | Scans | 2,95 GB
or FLAC Stereo (carefully converted & encoded to tracks) 24bit/96 kHz | 112:59 min | Scans | 2,48 GB
Features Stereo and Multichannel Surround Sound

From the opening chant of the Yakushiji monks, it is apparent that this is going to be a special offering from Kitaro. The legendary World Music pioneer's live album is a two-disc set recorded over three evenings in the sacred Yakushiji Temple in the ancient Japanese capital, Nara. Live in Yakushiji is a broad and deep journey, to inner realms as well as exotic earthly destinations.

With full instrumentation, Kitaro reprises nine favorite compositions from earlier albums, plus his Golden Globe Award-winning theme from the Oliver Stone film Heaven & Earth and two previously unreleased tracks. This is a tour de force for Kitaro and ensemble. All the drama, grace and humanity of his usual offerings are here with the added immediacy of the live recording and the profound spirit of the Yakushiki monks who appear on the previously unreleased "Wa" in addition to the opening track.

Tracklist:

CD1 #01. Monk's Introduction
CD1 #02. Hajimari/Sozo
CD1 #03. Caravansary
CD1 #04. Silk Road
CD1 #05. Magma
CD1 #06. Mercury

CD2 #01. Water of Mystery
CD2 #02. Estrella
CD2 #03. Koi
CD2 #04. Wa
CD2 #05. Free Flight
CD2 #06. Heaven and Earth

Recorded live on August 31, 2001 at Yakushiji Temple, Nara, Japan.

foobar2000 1.6.6 / Dynamic Range Meter 1.1.1

––––––––––––––––––––––––––––––––––––––––
Analyzed: Kitaro / Daylight, Moonlight - Kitaro Live in Yakushiji (Disc 1)
––––––––––––––––––––––––––––––––––––––––

DR Peak RMS Duration Track
––––––––––––––––––––––––––––––––––––––––
DR12 -15.21 dB -32.48 dB 5:07 01-Monk's Introduction
DR14 -7.18 dB -26.58 dB 9:51 02-Hajimari/Sozo
DR13 -6.04 dB -24.75 dB 5:57 03-Caravansary
DR12 -7.77 dB -25.71 dB 7:53 04-Silk Road
DR12 -5.17 dB -23.25 dB 10:23 05-Magma
DR13 -9.94 dB -29.51 dB 13:04 06-Mercury
––––––––––––––––––––––––––––––––––––––––

Number of tracks: 6
Official DR value: DR13

Samplerate: 2822400 Hz / PCM Samplerate: 176400 Hz
Channels: 6
Bits per sample: 1
Bitrate: 16934 kbps
Codec: DST64
================================================================================

––––––––––––––––––––––––––––––––––––––––
Analyzed: Kitaro / Daylight, Moonlight - Kitaro Live in Yakushiji (Disc 1)
––––––––––––––––––––––––––––––––––––––––

DR Peak RMS Duration Track
––––––––––––––––––––––––––––––––––––––––
DR11 -14.30 dB -29.00 dB 5:05 01-Monk's Introduction
DR13 -6.14 dB -23.27 dB 9:53 02-Hajimari/Sozo
DR13 -4.58 dB -21.47 dB 5:57 03-Caravansary
DR12 -6.32 dB -22.47 dB 7:51 04-Silk Road
DR12 -5.04 dB -21.96 dB 10:24 05-Magma
DR12 -7.65 dB -25.18 dB 13:05 06-Mercury
––––––––––––––––––––––––––––––––––––––––

Number of tracks: 6
Official DR value: DR12

Samplerate: 2822400 Hz / PCM Samplerate: 176400 Hz
Channels: 2
Bits per sample: 1
Bitrate: 5645 kbps
Codec: DST64
================================================================================

––––––––––––––––––––––––––––––––––––––––
Analyzed: Kitaro / Daylight, Moonlight - Kitaro Live in Yakushiji (Disc 2)
––––––––––––––––––––––––––––––––––––––––

DR Peak RMS Duration Track
––––––––––––––––––––––––––––––––––––––––
DR13 -5.08 dB -24.63 dB 9:42 01-Water of Mystery
DR13 -5.65 dB -25.17 dB 7:44 02-Estrella
DR12 -6.21 dB -25.24 dB 10:26 03-Koi
DR12 -5.83 dB -25.50 dB 11:08 04-Wa
DR12 -3.88 dB -23.32 dB 9:31 05-Free Flight
DR14 -5.15 dB -26.65 dB 12:24 06-Heaven and Earth
––––––––––––––––––––––––––––––––––––––––

Number of tracks: 6
Official DR value: DR13

Samplerate: 2822400 Hz / PCM Samplerate: 176400 Hz
Channels: 6
Bits per sample: 1
Bitrate: 16934 kbps
Codec: DST64
================================================================================

––––––––––––––––––––––––––––––––––––––––
Analyzed: Kitaro / Daylight, Moonlight - Kitaro Live in Yakushiji (Disc 2)
––––––––––––––––––––––––––––––––––––––––

DR Peak RMS Duration Track
––––––––––––––––––––––––––––––––––––––––
DR13 -5.23 dB -23.18 dB 9:37 01-Water of Mystery
DR13 -4.35 dB -21.55 dB 7:45 02-Estrella
DR12 -6.41 dB -22.18 dB 10:29 03-Koi
DR13 -3.56 dB -22.34 dB 11:07 04-Wa
DR12 -6.13 dB -23.41 dB 9:27 05-Free Flight
DR14 -4.20 dB -23.84 dB 12:20 06-Heaven and Earth
––––––––––––––––––––––––––––––––––––––––

Number of tracks: 6
Official DR value: DR13

Samplerate: 2822400 Hz / PCM Samplerate: 176400 Hz
Channels: 2
Bits per sample: 1
Bitrate: 5645 kbps
Codec: DST64


Thanks to ManWhoCan!
Uncompressed SACD ISO size > 3,09 + 3,64 GB
>