Kitaro - Kojiki (1990) [Reissue 2003] PS3 ISO + Hi-Res FLAC

Posted By: HDAtall
Kitaro - Kojiki (1990) [Reissue 2003] PS3 ISO + Hi-Res FLAC

Kitaro - Kojiki (1990) [Reissue 2003]
PS3 Rip | SACD ISO | DSD64 2.0 > 1-bit/2.8224 MHz | 46:09 minutes | Scans included | 1,34 GB
or FLAC (converted with foobar2000 to tracks) 24bit/96 kHz | Full Scans included | 1,01 GB

Kitaro crafts this musical journey from the ancient chronicle (Kojiki) that recounts the birth of Japan and it’s people. Featuring the string section from the Skywalker Symphony, along with Kitaro’s signature keyboard and flute sounds, the score to this thematic backdrop is full of passion and beauty that is masterfully conceived, arranged and performed. There are more classical elements on this record, and a more "composed" feel to the songwriting.

Tracklist:

01 - Hajimari
02 - Sozo
03 - Koi
04 - Orochi
05 - Nageki
06 - Matsuri
07 - Reimei

Digitally Remastered for SACD by Doug Sax & Robert Hadley at Mstering Lab.

foobar2000 1.4.6 / Dynamic Range Meter 1.1.1

––––––––––––––––––––––––––––––––––––––––
Analyzed: Kitaro / Kojiki
––––––––––––––––––––––––––––––––––––––––

DR Peak RMS Duration Track
––––––––––––––––––––––––––––––––––––––––
DR14 -3.99 dB -25.46 dB 3:34 01-Hajimari
DR13 -4.12 dB -23.22 dB 5:35 02-Sozo
DR13 -5.02 dB -24.89 dB 6:29 03-Koi
DR16 -3.41 dB -23.01 dB 7:09 04-Orochi
DR12 -8.38 dB -24.61 dB 5:46 05-Nageki
DR16 -3.90 dB -23.11 dB 8:59 06-Matsuri
DR14 -4.56 dB -23.45 dB 8:37 07-Reimei
––––––––––––––––––––––––––––––––––––––––

Number of tracks: 7
Official DR value: DR14

Samplerate: 2822400 Hz / PCM Samplerate: 176400 Hz
Channels: 2
Bits per sample: 1
Bitrate: 5645 kbps
Codec: DSD64


Thanks to PS³SACD!
Uncompressed SACD ISO size > 1,85 GB
>