Lawson Rollins - 3 Minutes To Midnight (2017) [Official Digital Download 24/96]

Posted By: HDV
Lawson Rollins - 3 Minutes To Midnight (2017) [Official Digital Download 24/96]

Lawson Rollins - 3 Minutes To Midnight (2017)
FLAC (tracks) 24-bit/96 kHz | Time - 41:14 minutes | 915 MB
Studio Master, Official Digital Download | Artwork: Front cover

Award-winning world beat guitarist Lawson Rollins ponders the last three minutes of his day, concentrating on the urgency of the moment, the exhilaration of the speed of sound, the poignancy of the remaining time and the mystical power of the number three. Rollins wrote these dozen multicultural compositions, all in the three minute range and illuminated by his prodigious fingerstyle guitar play. The recording is stripped down, punchy and concise, a radical departure for an artist usually known for creating elaborate, lavishly produced tracks that are at least twice as long.

I really made an effort to pare down my musical flights of fancy and focus on the essentials instead of diverging into various plots and subplots within the song structure. The songs have an urgent, succinct quality and are unencumbered by elaborate instrumentation. This is the first time I came up with the title and overall concept early on in the process. I don’t know if it’s a reaction to the times we live in, with our shrinking bandwidth for complexity and desire for clarity, or if I just wanted to be as impactful and expressive as I could across a range of emotions: from exciting, passionate and bursting with energy to sad, contemplative and
meditative".
– Lawson Rollins

Tracklist:

01 - 3 Minutes to Midnight
02 - Light the Way
03 - Island Time
04 - Sway
05 - Driving Force
06 - Southbound
07 - Stringdance
08 - Time Shift
09 - Reveal
10 - Split Second
11 - Eternal
12 - Mary's Rock

Analyzed: Lawson Rollins / 3 Minutes To Midnight
––––––––––––––––––––––––––––––––––––––––

DR Peak RMS Duration Track
––––––––––––––––––––––––––––––––––––––––
DR8 -0.30 dB -9.51 dB 3:29 01-3 Minutes to Midnight
DR8 -0.30 dB -9.27 dB 3:16 02-Light the Way
DR8 -0.30 dB -9.67 dB 3:28 03-Island Time
DR8 -0.30 dB -10.33 dB 3:10 04-Sway
DR7 -0.30 dB -8.27 dB 3:46 05-Driving Force
DR7 -0.30 dB -8.63 dB 3:01 06-Southbound
DR9 -0.30 dB -10.37 dB 3:48 07-Stringdance
DR8 -0.30 dB -9.22 dB 3:10 08-Time Shift
DR7 -0.30 dB -9.87 dB 3:18 09-Reveal
DR8 -0.30 dB -8.82 dB 3:50 10-Split Second
DR9 -0.30 dB -10.85 dB 3:38 11-Eternal
DR11 -0.79 dB -13.85 dB 3:22 12-Mary's Rock
––––––––––––––––––––––––––––––––––––––––

Number of tracks: 12
Official DR value: DR8

Samplerate: 96000 Hz
Channels: 2
Bits per sample: 24
Bitrate: 2474 kbps
Codec: FLAC
================================================================================


Thanks to the Original customer!