Lee Morgan - Search For The New Land (1966/2014) [Official Digital Download 24-bit/192 kHz]

Posted By: HDV
Lee Morgan - Search For The New Land (1966/2014) [Official Digital Download 24-bit/192 kHz]

Lee Morgan - Search For The New Land (1966/2014)
FLAC (tracks) 24 bit/192 kHz | Time - 42:24 minutes | 1,55 GB
FLAC (tracks) 24 bit/96 kHz | Time - 42:24 minutes | 898 MB
Studio Master, Official Digital Download | Artwork: Front cover

The jazz album "Search For the New Land features" five original compositions by trumpeter Lee Morgan. With an all star musical lineup, the album acquired number 16 on Billboard's Black Albums chart. Although it was recorded in 1964, the album was shelved for two years. "Search For the New Land" is recognized as one of Morgan's best recordings.

This is one of the finest Lee Morgan records. The great trumpeter contributes five challenging compositions ("Search for the New Land," "The Joker," "Mr. Kenyatta," "Melancholee," and "Morgan the Pirate") that deserve to be revived. Morgan, tenor saxophonist Wayne Shorter, guitarist Grant Green, pianist Herbie Hancock, bassist Reggie Workman, and drummer Billy Higgins are all in particularly creative form on the fresh material, and they stretch the boundaries of hard bop (the modern mainstream jazz of the period). The result is a consistently stimulating set that rewards repeated listenings.

Tracklist:

01 - Search For The New Land
02 - The Joker
03 - Mr. Kenyatta
04 - Melancholee
05 - Morgan The Pirate

Produced by Alfred Lion. Engineered by Rudy Van Gelder.
Recorded on February 15, 1964 at Van Gelder Studio in Englewood Cliffs, New Jersey.

Musicians:
Lee Morgan - trumpet
Wayne Shorter - tenor saxophone
Herbie Hancock - piano
Grant Green - piano
Reggie Workman - bass
Billy Higgins - drums

Analyzed: Lee Morgan / Search For The New Land
––––––––––––––––––––––––––––––––––––––––

DR Peak RMS Duration Track
––––––––––––––––––––––––––––––––––––––––
DR13 -0.61 dB -18.36 dB 15:47 01-Search For The New Land
DR13 0.00 dB -16.88 dB 5:05 02-The Joker
DR13 0.00 dB -16.40 dB 8:45 03-Mr. Kenyatta
DR14 0.00 dB -21.51 dB 6:16 04-Melancholee
DR13 -0.02 dB -16.66 dB 6:32 05-Morgan The Pirate
––––––––––––––––––––––––––––––––––––––––

Number of tracks: 5
Official DR value: DR13

Samplerate: 192000 Hz
Channels: 2
Bits per sample: 24
Bitrate: 5041 kbps
Codec: FLAC
================================================================================


Thanks to the Original customer!