Tags
Language
Tags

Leon Botstein, LSO - Popov: Symphony No.1 & Shostakovich: Theme and Variations (2004) MCH SACD ISO + DSD64 + Hi-Res FLAC

Posted By: HDAtall
Leon Botstein, LSO - Popov: Symphony No.1 & Shostakovich: Theme and Variations (2004) MCH SACD ISO + DSD64 + Hi-Res FLAC

Leon Botstein, London Symphony Orchestra - Popov: Symphony No. 1 / Shostakovich: Theme and Variations (2004)
SACD Rip | SACD ISO | DST64 2.0 & 5.1 > 1-bit/2.8224 MHz | 65:05 minutes | Front, Scans NOT included | 3,51 GB
or DSD64 2.0 Stereo (from SACD-ISO to Tracks.dsf) > 1-bit/2.8224 MHz | Front, Scans NOT included | 1,52 GB
or FLAC 2.0 (carefully converted & encoded to tracks) 24bit/96 kHz | Front, Scans NOT included | 1,28 GB
Features Stereo and Multichannel Surround Sound | Telarc # SACD-60642

Dmitry Shostakovich had a kind of protean musical genius that could take the shape of any container it was poured into. But what would have happened if his genius had been less adaptable? He might have ended up like Gavriil Popov: virtually unknown 100 years after his birth and 32 years since his death. These two composers had remarkably similar backgrounds. Both were daring young stars ascending in the Soviet firmament until the state intervened and censured them in the 1930's. Shostakovich adapted and recovered artistically; Popov did not. With this excellent new recording of Popov's early 1st Symphony, Leon Botstein and the London Symphony show us just how big Popov might have been. There are echoes of Shostakovich's tart writing, but there is also much that is original.

On the 70th anniversary of the completion of Popov’s Symphony No. 1, Botstein and the London Symphony Orchestra bring the work to life on a new Telarc recording that also includes Shostakovich’s Theme and Variations, Op. 3. Popov’s Symphony No. 1 “fits into the category of great music in the orchestral repertory that requires advocacy,” says Leon Botstein. “This symphony is a case in which a totalitarian state forced a work into obscurity and ultimately undermined the great talent that Gavriil Popov was”.

Admired by Prokofiev and Shostakovich but suppressed in Russia as "formalist," Gavriel Popov's Symphony No. 1, Op. 7 (1934), is the most daring of his six symphonies, a work of brutal violence and brooding mystery which, quite clearly, had the wherewithal to offend the Soviet authorities. Only gradually has it entered the repertoire in the West, largely through the efforts of conductor Leon Botstein and a few others. This turbulent work evokes memories of Stravinsky's Le Sacre du printemps and Prokofiev's Scythian Suite, and also bears some comparison to Shostakovich's Symphony No. 4 – similarly banned for its modernism – so strong are its dissonances and restless, frequently atonal counterpoint. The London Symphony Orchestra, directed by Botstein, gives a charged reading, filling the first movement with nervous energy, the lyrical second movement with foreboding, and the Scherzo finale with savage sarcasm; the performance is a convincing argument for this rugged work's revival. The Theme and Variations, Op. 3 (1922), by Shostakovich is an early work of modest proportions. This charming but derivative student work seems an odd choice as filler, since it dispels the impact of Popov's Symphony and closes the disc on a weak note. Telarc's DSD recording is fine, though the sound is a little distant in soft passages.

Tracklist:

01. Popov: Symphony No. 1 - I. Allegro energico
02. Popov: Symphony No. 1 - Largo con moto e molto cantabile
03. Popov: Synphony No. 1 - Scherzo e Coda. Prestissimo
04. Shostakovich: Theme and Variations - Tema. Andantino
05. Shostakovich: Theme and Variations - Variation I: Andantino
06. Shostakovich: Theme and Variations - Variation II: Più mosso (Vivace)
07. Shostakovich: Theme and Variations - Variation III: Andante
08. Shostakovich: Theme and Variations - Variation IV: Allegretto
09. Shostakovich: Theme and Variations - Variation V: Andante
10. Shostakovich: Theme and Variations - Variation VI: Allegro
11. Shostakovich: Theme and Variations - Variation VII: Moderato
12. Shostakovich: Theme and Variations - Variation VIII: Largo
13. Shostakovich: Theme and Variations - Variation IX: Allegro
14. Shostakovich: Theme and Variations - Variation X: Allegro molto
15. Shostakovich: Theme and Variations - Variation XI
16. Shostakovich: Theme and Variations - Finale: Allegro
17. Shostakovich: Theme and Variations - Finale: Adagio
18. Shostakovich: Theme and Variations - Coda: Presto

foobar2000 1.6.6 / Dynamic Range Meter 1.1.1

––––––––––––––––––––––––––––––––––––––––
Analyzed: Leon Botstein / London Symphony Orchestra / POPOV Symphony No. 1 / SHOSTAKOVICH Theme and Variations
––––––––––––––––––––––––––––––––––––––––

DR Peak RMS Duration Track
––––––––––––––––––––––––––––––––––––––––
DR13 -4.81 dB -27.84 dB 23:37 01-Symphony No. 1: I. Allegro energico
DR17 -5.02 dB -31.54 dB 16:36 02-Symphony No. 1: Largo con moto e molto
DR12 -3.97 dB -24.92 dB 9:17 03-Synphony No. 1 Finale: Scherzo e Coda.
DR10 -19.03 dB -33.04 dB 0:51 04-Theme and Variations: Tema. Andantino
DR10 -18.41 dB -32.83 dB 0:51 05-Theme and Variations: Variation I: Andantino
DR10 -13.30 dB -32.01 dB 0:45 06-Theme and Variations: Variation II: Più mosso (Vivace)
DR10 -19.61 dB -33.01 dB 1:03 07-Theme and Variations: Variation III: Andante
DR9 -19.94 dB -33.35 dB 0:28 08-Theme and Variations: Variation IV: Allegretto
DR10 -19.34 dB -33.05 dB 1:26 09-Theme and Variations: Variation V: Andante
DR10 -16.96 dB -32.62 dB 0:31 10-Theme and Variations: Variation VI: Allegro
DR10 -16.94 dB -32.54 dB 0:48 11-Theme and Variations: Variation VII: Moderato
DR10 -18.58 dB -32.84 dB 1:10 12-Theme and Variations: Variation VIII: Largo
DR10 -8.97 dB -28.02 dB 0:45 13-Theme and Variations: Variation IX: Allegro
DR9 -13.94 dB -31.61 dB 0:44 14-Theme and Variations: Variation X: Allegro molto
DR10 -14.36 dB -31.61 dB 2:10 15-Theme and Variations: Variation XI
DR12 -6.42 dB -28.31 dB 1:37 16-Theme and Variations: Finale: Allegro
DR10 -18.91 dB -33.17 dB 0:43 17-Theme and Variations: Finale: Adagio
DR11 -5.39 dB -26.77 dB 1:42 18-Theme and Variations: Coda: Presto
––––––––––––––––––––––––––––––––––––––––

Number of tracks: 18
Official DR value: DR11

Samplerate: 2822400 Hz / PCM Samplerate: 176400 Hz
Channels: 6
Bits per sample: 1
Bitrate: 16934 kbps
Codec: DST64
================================================================================

––––––––––––––––––––––––––––––––––––––––
Analyzed: Leon Botstein / London Symphony Orchestra / POPOV Symphony No. 1 / SHOSTAKOVICH Theme and Variations
––––––––––––––––––––––––––––––––––––––––

DR Peak RMS Duration Track
––––––––––––––––––––––––––––––––––––––––
DR16 -4.81 dB -26.30 dB 23:37 01-Symphony No. 1: I. Allegro energico
DR20 -5.87 dB -30.34 dB 16:36 02-Symphony No. 1: Largo con moto e molto
DR15 -3.97 dB -23.29 dB 9:17 03-Synphony No. 1 Finale: Scherzo e Coda.
DR12 -19.32 dB -32.04 dB 0:51 04-Theme and Variations: Tema. Andantino
DR11 -19.61 dB -31.81 dB 0:51 05-Theme and Variations: Variation I: Andantino
DR12 -13.30 dB -30.81 dB 0:45 06-Theme and Variations: Variation II: Più mosso (Vivace)
DR11 -19.73 dB -32.03 dB 1:03 07-Theme and Variations: Variation III: Andante
DR12 -19.94 dB -32.37 dB 0:28 08-Theme and Variations: Variation IV: Allegretto
DR12 -19.77 dB -32.08 dB 1:26 09-Theme and Variations: Variation V: Andante
DR12 -17.38 dB -31.53 dB 0:31 10-Theme and Variations: Variation VI: Allegro
DR11 -16.94 dB -31.46 dB 0:48 11-Theme and Variations: Variation VII: Moderato
DR11 -18.75 dB -31.85 dB 1:10 12-Theme and Variations: Variation VIII: Largo
DR12 -9.30 dB -26.83 dB 0:45 13-Theme and Variations: Variation IX: Allegro
DR11 -13.94 dB -30.65 dB 0:44 14-Theme and Variations: Variation X: Allegro molto
DR13 -14.84 dB -30.49 dB 2:10 15-Theme and Variations: Variation XI
DR15 -7.09 dB -27.07 dB 1:37 16-Theme and Variations: Finale: Allegro
DR12 -18.91 dB -32.20 dB 0:43 17-Theme and Variations: Finale: Adagio
DR13 -6.98 dB -25.49 dB 1:42 18-Theme and Variations: Coda: Presto
––––––––––––––––––––––––––––––––––––––––

Number of tracks: 18
Official DR value: DR13

Samplerate: 2822400 Hz / PCM Samplerate: 176400 Hz
Channels: 2
Bits per sample: 1
Bitrate: 5645 kbps
Codec: DST64


Thanks to ehondik!
Uncompressed SACD ISO size > 3,33 GB
>