Libby Titus - Libby Titus (1977/2013) [Official Digital Download 24bit/96kHz]

Posted By: HDV
Libby Titus - Libby Titus (1977/2013) [Official Digital Download 24bit/96kHz]

Libby Titus - Libby Titus (1977/2013)
FLAC (tracks) 24 bit/96 kHz | Time - 33:58 minutes | 664 MB
Studio Master, Official Digital Download | Artwork: Front cover
Produced by Phil Ramone with Paul Simon, Carly Simon and Robbie Robertson, Libby Titus is the songstress’ self-titled debut on Columbia Records. This 1977 gem features Titus originals alongside covers including Carly Simon’s “Can’t Believe You’re Mine” and Cole Porter’s “Miss Otis Regrets.” This must-have album also features arguably Titus’ biggest hit, “Love Has No Pride”.

Tracklist:

01 - Fool That I Am
02 - Kansas City (a.k.a. - K.C. Lovin')
03 - Can This Be My Love Affair
04 - The Night You Took Me To Barbados In My Dreams
05 - Love Has No Pride
06 - Yellow Beach Umbrella
07 - Can't Believe You're Mine
08 - Miss Otis Regrets
09 - Wish I Could
10 - Darkness 'Til Dawn

Analyzed: Libby Titus / Libby Titus
––––––––––––––––––––––––––––––––––––––––

DR Peak RMS Duration Track
––––––––––––––––––––––––––––––––––––––––
DR11 -1.76 dB -17.31 dB 3:49 01-Fool That I Am
DR13 0.00 dB -16.14 dB 3:30 02-Kansas City (a/k/a - K.C. Lovin')
DR12 0.00 dB -14.94 dB 2:34 03-Can This Be My Love Affair
DR12 0.00 dB -14.69 dB 2:49 04-The Night You Took Me To Barbados In My Dreams
DR14 0.00 dB -17.43 dB 3:54 05-Love Has No Pride
DR13 0.00 dB -15.87 dB 4:19 06-Yellow Beach Umbrella
DR13 0.00 dB -15.07 dB 2:24 07-Can't Believe You're Mine
DR12 -2.07 dB -19.26 dB 3:47 08-Miss Otis Regrets
DR14 0.00 dB -18.04 dB 3:06 09-Wish I Could
DR13 -3.19 dB -20.50 dB 3:47 10-Darkness 'Til Dawn
––––––––––––––––––––––––––––––––––––––––

Number of tracks: 10
Official DR value: DR13

Samplerate: 96000 Hz
Channels: 2
Bits per sample: 24
Bitrate: 2505 kbps
Codec: FLAC
================================================================================


Thanks to the Original customer!

.