Little Steven - Soulfire (2017) [Official Digital Download 24-bit/96 kHz]

Posted By: HDV
Little Steven - Soulfire (2017) [Official Digital Download 24-bit/96 kHz]

Little Steven - Soulfire (2017)
FLAC (tracks) 24-bit/96 kHz | Time - 57:15 minutes | 1,33 GB
Studio Master, Official Digital Download | Artwork: Front cover

Stevie Van Zandt's first solo album in almost two decades is without question his purest and most uniquely personal artistic statement thus far. The Rock & Roll Hall of Famer revisits songs that span the length of his career as artist, performer, producer, arranger and songwriter, focusing directly on the hugely influential "soul horns-meet-rock 'n' roll guitars" approach he first pioneered on Southside Johnny and the Asbury Jukes' classic first three albums. Brooklyn a cappella group The Persuasions appears on two tracks, while Van Zandt co-wrote the Motown-esque "Love On The Wrong Side Of Town" with his Boss, Bruce Springsteen.

Co-produced by Van Zandt with Grammy-winner Geoff Sanoff (Fountains of Wayne) and guitarist Marc Ribler, Soulfire was mixed and mastered by Van Zandt's career-long collaborators and friends Bob Clearmountain (the Rolling Stones, David Bowie) and Bob Ludwig (Led Zeppelin, Nirvana).

Little Steven didn't precisely abandon his solo career, but he did stop recording his own albums after 1999's Born Again Savage. He had a few things to keep him busy, including newfound stardom as a television star thanks to The Sopranos and a reunited E Street Band, not to mention philanthropy and the development of his own record label (Wicked Cool) and radio station (Little Steven's Underground Garage). When he finally found the time to record 2017's Soulfire, he decided the best course of action was to ditch the big political statements that characterized his '80s work and instead craft a statement of personal purpose. Anybody who has followed his music, either on his own or with Bruce Springsteen, will find Soulfire comfortably bracing: it's big, brassy, and soulful, and the E Street shuffle is on full fire. Little Steven finds space for a few detours from this route – "Blues Is My Business" is naturally a blues tune, "The City Weeps Tonight" is built on street corner doo wop, "Down and Out in New York City" glides along on a funky, sleazy '70s groove – but these accentuate how his music is a synthesis of all the sounds he's kept alive since the '60s. He blends bold soul with the roar of a teenage rock & roll combo, happy to nod toward his influences ("Love on the Wrong Side of Town" opens with guitars ringing just like the Byrds) while keeping his eye on the present. If Soulfire often sounds like Springsteen circa the late '70s, that's because Little Steven served as the Boss' lieutenant and there are distinct differences between the two as writers. Little Steven may share the same sense of grandeur in his sonics, but he keeps his focus earthbound, and that provides a nice tension to Soulfire: it's big music about everyday things.

Tracklist:

01 - Soulfire
02 - I'm Coming Back
03 - Blues Is My Business
04 - I Saw the Light
05 - Some Things Just Don't Change
06 - Love On the Wrong Side of Town
07 - The City Weeps Tonight
08 - Down and Out In New York City
09 - Standing In the Line of Fire
10 - Saint Valentine's Day
11 - I Don't Want To Go Home
12 - Ride the Night Away

Analyzed: Little Steven / Soulfire
––––––––––––––––––––––––––––––––––––––––

DR Peak RMS Duration Track
––––––––––––––––––––––––––––––––––––––––
DR7 0.00 dB -8.77 dB 4:34 01-Soulfire
DR7 0.00 dB -8.15 dB 4:19 02-I'm Coming Back
DR7 0.00 dB -8.28 dB 6:23 03-Blues Is My Business
DR7 0.00 dB -8.15 dB 4:27 04-I Saw the Light
DR7 0.00 dB -7.95 dB 4:05 05-Some Things Just Don't Change
DR8 0.00 dB -8.76 dB 3:52 06-Love On the Wrong Side of Town
DR8 0.00 dB -8.92 dB 3:31 07-The City Weeps Tonight
DR7 0.00 dB -8.88 dB 6:28 08-Down and Out In New York City
DR7 0.00 dB -8.88 dB 4:35 09-Standing In the Line of Fire
DR7 0.00 dB -8.37 dB 5:23 10-Saint Valentine's Day
DR7 0.00 dB -8.78 dB 4:21 11-I Don't Want To Go Home
DR8 0.00 dB -8.68 dB 5:18 12-Ride the Night Away
––––––––––––––––––––––––––––––––––––––––

Number of tracks: 12
Official DR value: DR7

Samplerate: 96000 Hz
Channels: 2
Bits per sample: 24
Bitrate: 3236 kbps
Codec: FLAC
================================================================================


Thanks to the Original customer!