Los Indios Tabajaras - Their Very Special Touch (1967/2017) [Official Digital Download 24-bit/192kHz]

Posted By: HDV
Los Indios Tabajaras - Their Very Special Touch (1967/2017) [Official Digital Download 24-bit/192kHz]

Los Indios Tabajaras - Their Very Special Touch (1967/2017)
FLAC (tracks) 24-bit/192 kHz | Time - 28:21 minutes | 1,07 GB
Studio Master, Official Digital Download | Artwork: Front cover

Certainly the most uncommon duo of Brazilian artists to have a solid international career, Los Índios Tabajaras was formed by the brothers Antenor Moreyra Lima (Muçaperê) and Natalício Moreyra Lima (Erundi). In the U.S. they had success in the early '70s with "Sakura-Sakura," and their biggest hit was the fox trot "Maria Helena," which won second place at the American charts and sold over one-and-a-half million copies. Their 48 LPs also sold millions of copies worldwide, and they toured South, Central, and North America, Asia, and Europe before settling in the U.S.

Tracklist:

01 - Sentimental Journey
02 - Strangers in the Night
03 - Song from Moulin Rouge (Where Is Your Heart)
04 - Frenesi
05 - Play a Simple Melody
06 - Tender Is the Night
07 - (I Wonder Why?) You're Just in Love
08 - Unchained Melody
09 - Les Gitans
10 - The Petite Waltz
11 - What a Diff'rence a Day Made

Analyzed: Los Indios Tabajaras / Their Very Special Touch
––––––––––––––––––––––––––––––––––––––––

DR Peak RMS Duration Track
––––––––––––––––––––––––––––––––––––––––
DR12 -0.02 dB -15.29 dB 2:26 01-Sentimental Journey
DR10 -1.28 dB -14.56 dB 2:16 02-Strangers in the Night
DR11 -0.46 dB -16.79 dB 2:02 03-Song from Moulin Rouge (Where Is Your Heart)
DR11 -0.02 dB -13.78 dB 2:04 04-Frenesi
DR9 -1.79 dB -13.13 dB 2:54 05-Play a Simple Melody
DR12 -1.40 dB -16.56 dB 2:55 06-Tender Is the Night
DR9 -1.47 dB -13.51 dB 2:39 07-(I Wonder Why?) You're Just in Love
DR11 -2.42 dB -17.29 dB 3:18 08-Unchained Melody
DR11 -0.25 dB -14.15 dB 2:43 09-Les Gitans
DR10 -1.36 dB -14.67 dB 2:24 10-The Petite Waltz
DR11 -2.57 dB -16.50 dB 2:40 11-What a Diff'rence a Day Made
––––––––––––––––––––––––––––––––––––––––

Number of tracks: 11
Official DR value: DR11

Samplerate: 192000 Hz
Channels: 2
Bits per sample: 24
Bitrate: 5044 kbps
Codec: FLAC
================================================================================


Thanks to the Original customer!

Los Indios Tabajaras - Twin Guitars: In A Mood For Lovers (1966)