Tags
Language
Tags

Love - Forever Changes (1967) [MFSL 2014] PS3 ISO + Hi-Res FLAC

Posted By:
Love - Forever Changes (1967) [MFSL 2014] PS3 ISO + Hi-Res FLAC

Love - Forever Changes (1967) [MFSL 2014]
PS3 Rip | SACD ISO | DSD64 2.0 > 1-bit/2.8224 MHz | 42:32 minutes | Scans included | 1,2 GB
or FLAC (converted with foobar2000 to tracks) 24bit/96 kHz | Full Scans included | 985 MB
Mobile Fidelity Sound Lab # 2131

Love's Forever Changes made only a minor dent on the charts when it was first released in 1967, but years later it became recognized as one of the finest and most haunting albums to come out of the Summer of Love, which doubtless has as much to do with the disc's themes and tone as the music, beautiful as it is. Sharp electric guitars dominated most of Love's first two albums, and they make occasional appearances here on tunes like "A House Is Not a Motel" and "Live and Let Live," but most of Forever Changes is built around interwoven acoustic guitar textures and subtle orchestrations, with strings and horns both reinforcing and punctuating the melodies.

The punky edge of Love's early work gave way to a more gentle, contemplative, and organic sound on Forever Changes, but while Arthur Lee and Bryan MacLean wrote some of their most enduring songs for the album, the lovely melodies and inspired arrangements can't disguise an air of malaise that permeates the sessions. A certain amount of this reflects the angst of a group undergoing some severe internal strife, but Forever Changes is also an album that heralds the last days of a golden age and anticipates the growing ugliness that would dominate the counterculture in 1968 and 1969; images of violence and war haunt "A House Is Not a Motel," the street scenes of "Maybe the People Would Be the Times or Between Clark and Hillsdale" reflects a jaded mindset that flower power could not ease, the twin specters of race and international strife rise to the surface of "The Red Telephone," romance becomes cynicism in "Bummer in the Summer," the promise of the psychedelic experience decays into hard drug abuse in "Live and Let Live," and even gentle numbers like "Andmoreagain" and "Old Man" sound elegiac, as if the ghosts of Chicago and Altamont were visible over the horizon as Love looked back to brief moments of warmth. Forever Changes is inarguably Love's masterpiece and an album of enduring beauty, but it's also one of the few major works of its era that saw the dark clouds looming on the cultural horizon, and the result was music that was as prescient as it was compelling.

Tracklist:

01. Alone Again Or
02. A House Is Not A Motel
03. Andmoreagain
04. The Daily Planet
05. Old Man
06. The Red Telephone
07. Maybe The People Would Be The Times Or Between Clark And Hilldale
08. Live And Let Live
09. The Good Humor Man He Sees Everything Like This
10. Bummer In The Summer
11. You Set The Scene

Mastered by Rob LoVerde at Mobile Fidelity Sound Lab, Sebastopol, CA.

foobar2000 1.5.4 / Dynamic Range Meter 1.1.1

––––––––––––––––––––––––––––––––––––––––
Analyzed: LOVE / Forever Changes
––––––––––––––––––––––––––––––––––––––––

DR Peak RMS Duration Track
––––––––––––––––––––––––––––––––––––––––
DR12 -6.37 dB -23.96 dB 3:16 01-Alone Again Or
DR9 -9.29 dB -22.52 dB 3:28 02-A House Is Not A Motel
DR13 -7.88 dB -24.05 dB 3:19 03-Andmoreagain
DR13 -7.82 dB -23.40 dB 3:28 04-The Daily Planet
DR10 -10.27 dB -25.20 dB 3:00 05-Old Man
DR11 -11.40 dB -25.29 dB 4:45 06-The Red Telephone
DR12 -7.43 dB -20.69 dB 3:31 07-Maybe The People Would Be The Times Or Between Clark And Hilldale
DR10 -9.73 dB -23.74 dB 5:25 08-Live And Let Live
DR13 -9.79 dB -27.35 dB 3:05 09-The Good Humor Man He Sees Everything Like This
DR12 -8.52 dB -23.05 dB 2:22 10-Bummer In The Summer
DR12 -7.94 dB -23.63 dB 6:53 11-You Set The Scene
––––––––––––––––––––––––––––––––––––––––

Number of tracks: 11
Official DR value: DR12

Samplerate: 2822400 Hz / PCM Samplerate: 1764200 Hz
Channels: 2
Bits per sample: 24
Bitrate: 5645 kbps
Codec: DSD64


Thanks to PS³SACD!
Uncompressed SACD ISO size > 1,72 GB
>