Tags
Language
Tags

Madonna - Madonna (1983/2012) [Official Digital Download 24bit/192kHz]

Posted By: HDV
Madonna - Madonna (1983/2012) [Official Digital Download 24bit/192kHz]

Madonna - Madonna (1983/2012)
FLAC (tracks) 24 bit/192 kHz | Time - 41:13 minutes | 1,58 GB
FLAC (tracks) 24 bit/96 kHz | Time - 41:13 minutes | 901 MB
Studio Master, Official Digital Download | Artwork: Front Cover

Madonna’s multi-platinum self titled debut saw the arrival of one of music’s greatest. The cultural icon began leaving her imprint on the music scene popularizing dance music. A showcase of her dynamic vocals, the album peaked at #8 on Billboard’s Top 200. Included on this intoxicating album were the breakout hits, “Burning Up”, “Everybody”, “Holiday”, “Borderline” and “Lucky Star”. The album shot Madonna to worldwide stardom, available now as a pristine hi-res download.

Although she never left it behind, it's been easy to overlook that Madonna began her career as a disco diva in an era that didn't have disco divas. It was an era where disco was anathema to the mainstream pop, and she had a huge role in popularizing dance music as a popular music again, crashing through the door Michael Jackson opened with Thriller. Certainly, her undeniable charisma, chutzpah, and sex appeal had a lot to do with that – it always did, throughout her career – but she wouldn't have broken through if the music wasn't so good. And her eponymous debut isn't simply good, it set the standard for dance-pop for the next 20 years. Why did it do so? Because it cleverly incorporated great pop songs with stylish, state-of-the-art beats, and it shrewdly walked a line between being a rush of sound and a showcase for a dynamic lead singer. This is music where all of the elements may not particularly impressive on their own – the arrangement, synth, and drum programming are fairly rudimentary; Madonna's singing isn't particularly strong; the songs, while hooky and memorable, couldn't necessarily hold up on their own without the production – but taken together, it's utterly irresistible. And that's the hallmark of dance-pop: every element blends together into an intoxicating sound, where the hooks and rhythms are so hooky, the shallowness is something to celebrate. And there are some great songs here, whether it's the effervescent "Lucky Star," "Borderline," and "Holiday" or the darker, carnal urgency of "Burning Up" and "Physical Attraction." And if Madonna would later sing better, she illustrates here that a good voice is secondary to dance-pop. What's really necessary is personality, since that sells a song where there are no instruments that sound real. Here, Madonna is on fire, and that's the reason why it launched her career, launched dance-pop, and remains a terrific, nearly timeless, listen.

Tracklist:

01 - Lucky Star
02 - Borderline
03- Burning Up
04 - I Know It
05 - Holiday
06 - Think Of Me
07 - Physical Attraction
08 - Everybody

Analyzed: Madonna / Madonna
––––––––––––––––––––––––––––––––––––––––

DR Peak RMS Duration Track
––––––––––––––––––––––––––––––––––––––––
DR12 -0.08 dB -15.11 dB 5:37 01-Lucky Star
DR12 -0.99 dB -15.62 dB 5:22 02-Borderline
DR13 -1.55 dB -16.00 dB 3:45 03-Burning Up
DR12 -2.11 dB -16.94 dB 3:45 04-I Know It
DR14 -0.79 dB -16.42 dB 6:11 05-Holiday
DR15 -1.23 dB -17.72 dB 4:56 06-Think Of Me
DR13 -1.87 dB -17.41 dB 6:40 07-Physical Attraction
DR16 -2.42 dB -19.85 dB 4:57 08-Everybody
––––––––––––––––––––––––––––––––––––––––

Number of tracks: 8
Official DR value: DR13

Samplerate: 192000 Hz
Channels: 2
Bits per sample: 24
Bitrate: 5072 kbps
Codec: FLAC
================================================================================


Thanks to the Original customer!