Tags
Language
Tags

Mahalia Jackson - Everytime I Feel The Spirit (1961/2015) [Official Digital Download 24-bit/96 kHz]

Posted By: HDV
Mahalia Jackson - Everytime I Feel The Spirit (1961/2015) [Official Digital Download 24-bit/96 kHz]

Mahalia Jackson - Everytime I Feel The Spirit (1961/2015)
FLAC (tracks) 24-bit/96 kHz | Time - 48:27 minutes | 939 MB
Studio Master, Official Digital Download | Artwork: Front cover

Mahalia Jackson was an American gospel singer. Possessing a powerful contralto voice, she was referred to as "The Queen of Gospel". She became one of the most influential gospel singers in the world and was heralded internationally as a singer and civil rights activist. She was described by entertainer Harry Belafonte as "the single most powerful black woman in the United States". She recorded about 30 albums during her career, and her 45 rpm records included a dozen "golds"—million-sellers.This album from 1961 contains contains an amazing nine-minute reading of "The Love of God".

Tracklist:

01 - Little David Play On Your Harp
02 - The Love of God
03 - I Want to Be a Christian
04 - Rockin' In Jerusalem
05 - Trail to Heaven
06 - I Know Prayer Changes Things
07 - The Only Hope We Have
08 - What a Difference Since My Heart's Been Changed
09 - Everytime I Feel the Spirit I Pray
10 - Have You Any Time for Jesus

The Orchestra And Chorus Conducted By Johnny Williams.
Featuring – Mildred Falls.

Analyzed: Mahalia Jackson / Everytime I Feel The Spirit
––––––––––––––––––––––––––––––––––––––––

DR Peak RMS Duration Track
––––––––––––––––––––––––––––––––––––––––
DR10 -0.81 dB -15.18 dB 4:42 01-Little David Play On Your Harp
DR8 -2.32 dB -15.76 dB 9:17 02-The Love of God
DR8 -2.71 dB -15.31 dB 3:10 03-I Want to Be a Christian
DR9 -2.75 dB -15.23 dB 3:53 04-Rockin' In Jerusalem
DR10 -2.29 dB -15.64 dB 3:37 05-Trail to Heaven
DR9 -2.25 dB -14.55 dB 4:48 06-I Know Prayer Changes Things
DR8 -3.85 dB -14.53 dB 5:20 07-The Only Hope We Have
DR8 -4.12 dB -16.51 dB 4:14 08-What a Difference Since My Heart's Been Changed
DR10 -2.49 dB -14.69 dB 3:41 09-Everytime I Feel the Spirit I Pray
DR9 -3.67 dB -15.50 dB 5:43 10-Have You Any Time for Jesus
––––––––––––––––––––––––––––––––––––––––

Number of tracks: 10
Official DR value: DR9

Samplerate: 96000 Hz
Channels: 2
Bits per sample: 24
Bitrate: 2623 kbps
Codec: FLAC
================================================================================


Thanks to the Original customer!