Maluma - Pretty Boy, Dirty Boy (2015) [Official Digital Download 24-bit/96 kHz]

Posted By: HDV
Maluma - Pretty Boy, Dirty Boy (2015) [Official Digital Download 24-bit/96 kHz]

Maluma - Pretty Boy, Dirty Boy (2015)
FLAC (tracks) 24-bit/96 kHz | Time - 56:09 minutes | 1,25 GB
Studio Master, Official Digital Download | Artwork: Front cover

"Pretty Boy, Dirty Boy" is the second studio album by Colombian singer and songwriter Maluma, released in October 2015 by Sony Music Latin. Work on the album lasted three years, during which Maluma collaborated with various songwriters and producers. Pretty Boy, Dirty Boy is a concept album meant to showcase the different facets of Maluma; the Pretty Boy side contains romantic balladry and the Dirty Boy consisting of reggaeton-infused seductive songs.

Tracklist:

01 - Borro Cassette
02 - ¿Dónde Estás? (featuring Farruko)
03 - El Perdedor
04 - Me Gustas
05 - Sin Contrato
06 - Una Aventura (featuring Alexis & Fido)
07 - Tengo un Amor (featuring Leslie Grace)
08 - Pretextos (featuring Cosculluela)
09 - Ya No Es Niña
10 - Solos (featuring El Micha)
11 - Tu Cariño (featuring Arcángel)
12 - Recuérdame
13 - La Misma Moneda
14 - Vuelo Hacia el Olvido
15 - El Tiki
16 - Carnaval

Analyzed: Maluma / Pretty Boy, Dirty Boy
––––––––––––––––––––––––––––––––––––––––

DR Peak RMS Duration Track
––––––––––––––––––––––––––––––––––––––––
DR5 -0.65 dB -6.87 dB 3:27 01-Borro Cassette
DR5 -0.55 dB -6.38 dB 3:18 02-¿Dónde Estás? (featuring Farruko)
DR6 -0.57 dB -7.92 dB 3:27 03-El Perdedor
DR5 -0.53 dB -7.31 dB 3:38 04-Me Gustas
DR5 -0.66 dB -6.65 dB 3:42 05-Sin Contrato
DR5 -0.63 dB -7.60 dB 3:50 06-Una Aventura (featuring Alexis & Fido)
DR5 -0.66 dB -6.87 dB 3:48 07-Tengo un Amor (featuring Leslie Grace)
DR5 -0.67 dB -7.51 dB 3:48 08-Pretextos (featuring Cosculluela)
DR5 -0.67 dB -7.61 dB 3:36 09-Ya No Es Niña
DR5 -0.53 dB -7.40 dB 3:27 10-Solos (featuring El Micha)
DR6 -0.67 dB -8.01 dB 3:07 11-Tu Cariño (featuring Arcángel)
DR4 -0.67 dB -6.72 dB 3:11 12-Recuérdame
DR5 -0.65 dB -7.55 dB 3:41 13-La Misma Moneda
DR7 -0.63 dB -10.39 dB 3:33 14-Vuelo Hacia el Olvido
DR6 -0.81 dB -8.10 dB 3:02 15-El Tiki
DR5 -0.63 dB -6.30 dB 3:34 16-Carnaval
––––––––––––––––––––––––––––––––––––––––

Number of tracks: 16
Official DR value: DR5

Samplerate: 96000 Hz
Channels: 2
Bits per sample: 24
Bitrate: 3274 kbps
Codec: FLAC
================================================================================


Thanks to the Original customer!