Manowar - Warriors Of The World (2002) [2.0 & 5.1] PS3 ISO + Hi-Res FLAC {RE-UP}

Posted By: HDAtall
Manowar - Warriors Of The World (2002) [2.0 & 5.1] PS3 ISO + Hi-Res FLAC {RE-UP}

Manowar - Warriors Of The World (2002) [2.0 & 5.1]
PS3 Rip | SACD ISO | DST64 2.0 & 5.1 > 1-bit/2.8224 MHz | 47:41 minutes | Scans included | 3,63 GB
or FLAC 2.0 Stereo (converted with foobar2000 to tracks) 24bit/88,2 kHz | Scans included | 1,02 GB
Features Stereo and Multichannel surround sound

Like most latter-day Manowar outings, Warriors of the World is a mixed affair rife with all of the clich├ęs that make Manowar either Gods or an amusing joke, depending on what side of the inner circle you reside on. No matter how big a fan of the band someone might be, it's hard to take the operatic "Nessun Dorma" and succeeding power ballad "Valhalla" seriously, as they sound like something Spinal Tap would have thought up when not worrying about amps that went to 11. In fact, too much of this disc relies on similar cheeseball balladry that, try as it might to be gallant and heroic, really comes off as self-parody. Fortunately, the disc has enough tracks that do reach higher decibels, including the last four and disc-opener "Call to Arms," that are more indicative of what made Manowar great, namely heavy riffs and heavier attitude that, even when embracing an ethos that many would be embarrassed about, still comes off sincere. Manowar mean it when they sing about the "House of Death" and how they will "Fight Until We Die," and that's why you should love them, warts and all.

Tracklist:

01. Call To Arms
02. Fight For Freedom
03. Nessun Dorma
04. Valhalla
05. Swords In The Wind
06. American Trilogy
07. The March
08. Warriors Of The World United
09. Hands Of Doom
10. House Of Death
11. Fight Until We Die

foobar2000 1.1.18 / Dynamic Range Meter 1.1.1

––––––––––––––––––––––––––––––––––––––––
Analyzed: MANOWAR / WARRIORS OF THE WORLD
––––––––––––––––––––––––––––––––––––––––

DR Peak RMS Duration Track
––––––––––––––––––––––––––––––––––––––––
DR12 -4.51 dB -21.94 dB 5:27 01-Call To Arms
DR13 -5.28 dB -23.45 dB 4:32 02-Fight For Freedom
DR12 -6.19 dB -24.89 dB 3:27 03-Nessun Dorma
DR9 -12.41 dB -27.68 dB 0:33 04-Valhalla
DR12 -4.75 dB -23.85 dB 5:18 05-Swords In The Wind
DR13 -5.95 dB -24.30 dB 4:17 06-American Trilogy
DR13 -7.92 dB -28.89 dB 3:59 07-The March
DR13 -5.35 dB -23.93 dB 5:55 08-Warriors Of The World United
DR13 -5.31 dB -26.00 dB 5:50 09-Hands Of Doom
DR12 -4.93 dB -23.10 dB 4:21 10-House Of Death
DR14 -4.09 dB -23.15 dB 4:00 11-Fight Until We Die
––––––––––––––––––––––––––––––––––––––––

Number of tracks: 11
Official DR value: DR12

Samplerate: 2822400 Hz / PCM Samplerate: 88200 Hz
Channels: 6
Bits per sample: 24
Bitrate: 16934 kbps
Codec: DST64
================================================================================

––––––––––––––––––––––––––––––––––––––––
Analyzed: MANOWAR / WARRIORS OF THE WORLD
––––––––––––––––––––––––––––––––––––––––

DR Peak RMS Duration Track
––––––––––––––––––––––––––––––––––––––––
DR14 -5.57 dB -20.64 dB 5:27 01-Call To Arms
DR14 -6.26 dB -23.05 dB 4:32 02-Fight For Freedom
DR12 -7.43 dB -25.38 dB 3:27 03-Nessun Dorma
DR9 -13.29 dB -25.87 dB 0:33 04-Valhalla
DR13 -7.05 dB -22.96 dB 5:18 05-Swords In The Wind
DR11 -6.69 dB -22.78 dB 4:17 06-American Trilogy
DR12 -7.96 dB -25.98 dB 3:59 07-The March
DR17 -4.05 dB -22.90 dB 5:54 08-Warriors Of The World United
DR13 -6.44 dB -20.95 dB 5:50 09-Hands Of Doom
DR13 -4.55 dB -21.67 dB 4:23 10-House Of Death
DR13 -6.39 dB -20.35 dB 4:00 11-Fight Until We Die
––––––––––––––––––––––––––––––––––––––––

Number of tracks: 11
Official DR value: DR13

Samplerate: 2822400 Hz / PCM Samplerate: 88200 Hz
Channels: 2
Bits per sample: 24
Bitrate: 5645 kbps
Codec: DST64


Thanks to ManWhoCan!
Uncompressed SACD ISO size > 3,42 GB
>
SACD ISO 1
SACD ISO 2
SACD ISO 3
SACD ISO 4

FLAC 1 (Stereo)
FLAC 2 (Stereo)
>