Mari Kodama - Beethoven: The Complete Piano Sonatas (2014) [Official Digital Download 24bit/96kHz] RE-UP

Posted By: HDV
Mari Kodama - Beethoven: The Complete Piano Sonatas (2014) [Official Digital Download 24bit/96kHz] RE-UP

Mari Kodama - Beethoven: The Complete Piano Sonatas (2014)
FLAC (tracks) 24 bit/96 kHz | Time - 622:28 minutes | ~ 11 GB
Studio Master, Official Digital Download | Artwork: Digital booklet

The waiting has finally paid off: the complete Beethoven piano sonata cycle has finally arrived. Japanese pianist Mari Kodama is only the fourth woman to have recorded all of Beethoven's sonatas (Pizzicato). Although not the first with this achievement, the very idea that an artist can play this music and still introduce a new perspective, as Kodama so often proves with her performances, is astonishing.

After starting the recordings in 2003, Mari Kodama completed the final piece in 2013. Once again Ms. Kodama meets all expectations in the pursuit of these horizons, and she entirely takes on the challenge with the last instalment of her critically-acclaimed journey through this ever-fascinating cycle. It is then only fair that this feat is celebrated in the form of a collector’s item SACD box set with its larger-than-life surround sound.

Tracklist:

CD1 #01 - Piano Sonata No. 21 in C Major, Op. 53, "Waldstein": I. Allegro con brio
CD1 #02 - Piano Sonata No. 21 in C Major, Op. 53, "Waldstein": II. Introduzione: Adagio molto
CD1 #03 - Piano Sonata No. 21 in C Major, Op. 53, "Waldstein": III. Rondo: Allegretto moderato - Prestissimo
CD1 #04 - Piano Sonata No. 23 in F Minor, Op. 57, "Appassionata": I. Allegro assai
CD1 #05 - Piano Sonata No. 23 in F Minor, Op. 57, "Appassionata": II. Andante con moto
CD1 #06 - Piano Sonata No. 23 in F Minor, Op. 57, "Appassionata": III. Allegro ma non troppo - Presto
CD1 #07 - Piano Sonata No. 26 in E-Flat Major, Op. 81a, "Les adieux": I. Das Lebewohl: Adagio. Allegro
CD1 #08 - Piano Sonata No. 26 in E-Flat Major, Op. 81a, "Les adieux": II. Abwesenheit: Andante espressivo
CD1 #09 - Piano Sonata No. 26 in E-Flat Major, Op. 81a, "Les adieux": III. Das Wiedersehn: Vivacissimamente

CD2 #01 - Piano Sonata No. 14 in C-Sharp Minor, Op. 27, No. 2, "Moonlight": I. Adagio sostenuto
CD2 #02 - Piano Sonata No. 14 in C-Sharp Minor, Op. 27, No. 2, "Moonlight": II. Allegro
CD2 #03 - Piano Sonata No. 14 in C-Sharp Minor, Op. 27, No. 2, "Moonlight": III. Presto
CD2 #04 - Piano Sonata No. 4 in E-Flat Major, Op. 7: I. Allegro molto e con brio
CD2 #05 - Piano Sonata No. 4 in E-Flat Major, Op. 7: II. Largo, con gran espressione
CD2 #06 - Piano Sonata No. 4 in E-Flat Major, Op. 7: III. Allegro
CD2 #07 - Piano Sonata No. 4 in E-Flat Major, Op. 7: IV. Rondo: Poco allegretto e grazioso
CD2 #08 - Piano Sonata No. 11 in B-Flat Major, Op. 22: I. Allegro con brio
CD2 #09 - Piano Sonata No. 11 in B-Flat Major, Op. 22: II. Adagio con molto espressione
CD2 #10 - Piano Sonata No. 11 in B-Flat Major, Op. 22: III. Minuetto
CD2 #11 - Piano Sonata No. 11 in B-Flat Major, Op. 22: IV. Rondo: Allegretto

CD3 #01 - Piano Sonata No. 1 in F Minor, Op. 2, No. 1: I. Allegro
CD3 #02 - Piano Sonata No. 1 in F Minor, Op. 2, No. 1: II. Adagio
CD3 #03 - Piano Sonata No. 1 in F Minor, Op. 2, No. 1: III. Menuetto: Allegretto
CD3 #04 - Piano Sonata No. 1 in F Minor, Op. 2, No. 1: IV. Prestissimo
CD3 #05 - Piano Sonata No. 2 in A Major, Op. 2, No. 2: I. Allegro vivace
CD3 #06 - Piano Sonata No. 2 in A Major, Op. 2, No. 2: II. Largo appassionato
CD3 #07 - Piano Sonata No. 2 in A Major, Op. 2, No. 2: III. Scherzo: Allegretto - Trio
CD3 #08 - Piano Sonata No. 2 in A Major, Op. 2, No. 2: IV. Rondo: Grazioso
CD3 #09 - Piano Sonata No. 3 in C Major, Op. 2, No. 3: I. Allegro con brio
CD3 #10 - Piano Sonata No. 3 in C Major, Op. 2, No. 3: II. Adagio
CD3 #11 - Piano Sonata No. 3 in C Major, Op. 2, No. 3: III. Scherzo: Allegro - Trio
CD3 #12 - Piano Sonata No. 3 in C Major, Op. 2, No. 3: IV. Allegro assai

CD4 #01 - Piano Sonata No. 8 in C Minor, Op. 13, "Pathetique": I. Grave - Allegro di molto e con brio
CD4 #02 - Piano Sonata No. 8 in C Minor, Op. 13, "Pathetique": II. Adagio cantabile
CD4 #03 - Piano Sonata No. 8 in C Minor, Op. 13, "Pathetique": III. Rondo: Allegro
CD4 #04 - Piano Sonata No. 5 in C Minor, Op. 10, No. 1: I. Molto allegro e con brio
CD4 #05 - Piano Sonata No. 5 in C Minor, Op. 10, No. 1: II. Adagio molto
CD4 #06 - Piano Sonata No. 5 in C Minor, Op. 10, No. 1: III. Finale: Prestissimo
CD4 #07 - Piano Sonata No. 6 in F Major, Op. 10, No. 2: I. Allegro
CD4 #08 - Piano Sonata No. 6 in F Major, Op. 10, No. 2: II. Allegretto
CD4 #09 - Piano Sonata No. 6 in F Major, Op. 10, No. 2: III. Finale: Presto
CD4 #10 - Piano Sonata No. 7 in D Major, Op. 10, No. 3: I. Presto
CD4 #11 - Piano Sonata No. 7 in D Major, Op. 10, No. 3: II. Largo e mesto
CD4 #12 - Piano Sonata No. 7 in D Major, Op. 10, No. 3: III. Menuetto - Trio - Menuetto: Allegro
CD4 #13 - Piano Sonata No. 7 in D Major, Op. 10, No. 3: IV. Rondo: Allegro

CD5 #01 - Piano Sonata No. 16 in G Major, Op. 31, No. 1: I. Allegro vivace
CD5 #02 - Piano Sonata No. 16 in G Major, Op. 31, No. 1: II. Adagio grazioso
CD5 #03 - Piano Sonata No. 16 in G Major, Op. 31, No. 1: III. Rondo allegretto
CD5 #04 - Piano Sonata No. 17 in D Minor, Op. 31, No. 2, "Tempest": I. Lento - Allegro
CD5 #05 - Piano Sonata No. 17 in D Minor, Op. 31, No. 2, "Tempest": II. Adagio
CD5 #06 - Piano Sonata No. 17 in D Minor, Op. 31, No. 2, "Tempest": III. Allegretto
CD5 #07 - Piano Sonata No. 18 in E-Flat Major, Op. 31, No. 3, "La Chasse": I. Allegro
CD5 #08 - Piano Sonata No. 18 in E-Flat Major, Op. 31, No. 3, "La Chasse": II. Scherzo: Allegretto vivace
CD5 #09 - Piano Sonata No. 18 in E-Flat Major, Op. 31, No. 3, "La Chasse": III. Minuet: Moderato e grazioso
CD5 #10 - Piano Sonata No. 18 in E-Flat Major, Op. 31, No. 3, "La Chasse": IV. Presto con fuoco

CD6 #01 - Piano Sonata No. 12 in A-Flat Major, Op. 26: I. Andante con variazioni
CD6 #02 - Piano Sonata No. 12 in A-Flat Major, Op. 26: II. Scherzo: Molto allegro
CD6 #03 - Piano Sonata No. 12 in A-Flat Major, Op. 26: III. Marcia funebre sulla morte d'un eroe
CD6 #04 - Piano Sonata No. 12 in A-Flat Major, Op. 26: IV. Allegro
CD6 #05 - Piano Sonata No. 13 in E-Flat Major, Op. 27, No. 1: I. Andante
CD6 #06 - Piano Sonata No. 13 in E-Flat Major, Op. 27, No. 1: II. Allegro molto e vivace
CD6 #07 - Piano Sonata No. 13 in E-Flat Major, Op. 27, No. 1: III. Adagio con espressione
CD6 #08 - Piano Sonata No. 13 in E-Flat Major, Op. 27, No. 1: IV. Allegro vivace
CD6 #09 - Piano Sonata No. 15 in D Major, Op. 28, "Pastoral": I. Allegro
CD6 #10 - Piano Sonata No. 15 in D Major, Op. 28, "Pastoral": II. Andante
CD6 #11 - Piano Sonata No. 15 in D Major, Op. 28, "Pastoral": III. Scherzo: Allegro vivace
CD6 #12 - Piano Sonata No. 15 in D Major, Op. 28, "Pastoral": IV. Rondo: Allegro ma non troppo
CD6 #13 - Piano Sonata No. 27 in E Minor, Op. 90: I. Mit lebhaftigkeit und durchaus mit Empfindung und Ausdruck
CD6 #14 - Piano Sonata No. 27 in E Minor, Op. 90: II. Nicht zu geschwind und sehr singbar vorgetragen

CD7 #01 - Piano Sonata No. 9 in E Major, Op. 14, No. 1: I. Allegro
CD7 #02 - Piano Sonata No. 9 in E Major, Op. 14, No. 1: II. Allegretto
CD7 #03 - Piano Sonata No. 9 in E Major, Op. 14, No. 1: III. Rondo: Allegro comodo
CD7 #04 - Piano Sonata No. 10 in G Major, Op. 14, No. 2: I. Allegro
CD7 #05 - Piano Sonata No. 10 in G Major, Op. 14, No. 2: II. Andante
CD7 #06 - Piano Sonata No. 10 in G Major, Op. 14, No. 2: III. Scherzo: Allegro assai
CD7 #07 - Piano Sonata No. 22 in F Major, Op. 54: I. In tempo d'un minuetto
CD7 #08 - Piano Sonata No. 22 in F Major, Op. 54: II. Allegretto - Piu allegro
CD7 #09 - Piano Sonata No. 19 in G Minor, Op. 49, No. 1: I. Andante
CD7 #10 - Piano Sonata No. 19 in G Minor, Op. 49, No. 1: II. Rondo: Allegro
CD7 #11 - Piano Sonata No. 20 in G Major, Op. 49, No. 2: I. Allegro ma non troppo
CD7 #12 - Piano Sonata No. 20 in G Major, Op. 49, No. 2: II. Tempo di menuetto
CD7 #13 - Piano Sonata No. 24 in F-Sharp Major, Op. 78: I. Adagio cantabile - Allegro ma non troppo
CD7 #14 - Piano Sonata No. 24 in F-Sharp Major, Op. 78: II. Allegro vivace
CD7 #15 - Piano Sonata No. 25 in G Major, Op. 79: I. Presto alla tedesca
CD7 #16 - Piano Sonata No. 25 in G Major, Op. 79: II. Andante
CD7 #17 - Piano Sonata No. 25 in G Major, Op. 79: III. Vivace

CD8 #01 - Piano Sonata No. 29 in B-Flat Major, Op. 106, "Hammerklavier": I. Allegro
CD8 #02 - Piano Sonata No. 29 in B-Flat Major, Op. 106, "Hammerklavier": II. Scherzo: Assai vivace - Presto - Tempo I
CD8 #03 - Piano Sonata No. 29 in B-Flat Major, Op. 106, "Hammerklavier": III. Adagio sostenuto, appassionato e con molto sentimento
CD8 #04 - Piano Sonata No. 29 in B-Flat Major, Op. 106, "Hammerklavier": IV. Largo - Allegro risoluto
CD8 #05 - Piano Sonata No. 28 in A Major, Op. 101: I. Etwas lebhaft und mit der innigsten Empfindung
CD8 #06 - Piano Sonata No. 28 in A Major, Op. 101: II. Lebhaft. Marschmassig
CD8 #07 - Piano Sonata No. 28 in A Major, Op. 101: III. Langsam und sehnsuchtsvoll
CD8 #08 - Piano Sonata No. 28 in A Major, Op. 101: IV. Geschwind, doch nicht zu sehr, und mit Entschlossenheit

CD9 #01 - Piano Sonata No. 30 in E Major, Op. 109: I. Vivace ma non troppo
CD9 #02 - Piano Sonata No. 30 in E Major, Op. 109: II. Prestissimo
CD9 #03 - Piano Sonata No. 30 in E Major, Op. 109: III. Gesangvoll, mit innigster Empfindung: Andante molto cantabile ed espressivo
CD9 #04 - Piano Sonata No. 31 in A-Flat Major, Op. 110: I. Moderato cantabile molto espressivo
CD9 #05 - Piano Sonata No. 31 in A-Flat Major, Op. 110: II. Allegro molto
CD9 #06 - Piano Sonata No. 31 in A-Flat Major, Op. 110: III. Adagio ma non troppo -
CD9 #07 - Piano Sonata No. 31 in A-Flat Major, Op. 110: III. Fuga: Allegro ma non troppo
CD9 #08 - Piano Sonata No. 32 in C Minor, Op. 111: I. Maestoso - Allegro con brio ed appassionato
CD9 #09 - Piano Sonata No. 32 in C Minor, Op. 111: II. Arietta: Adagio molto semplice e cantabile

Produced by Wilhelm Hellweg. Recording engineers: Jean-Marie Geijsen and Daan van Aalst.
Recorded between January 2003 - February 2013 at Concertboerderij Valthermond and Doopsgezinde Kerk in The Netherlands.

Analyzed: Mari Kodama / Beethoven: The Complete Piano Sonatas
––––––––––––––––––––––––––––––––––––––––

DR Peak RMS Duration Track
––––––––––––––––––––––––––––––––––––––––
DR14 -5.25 dB -24.80 dB 10:52 01-Piano Sonata No. 21 in C Major, Op. 53, "Waldstein": I. Allegro con brio
DR15 -8.65 dB -30.76 dB 3:18 02-Piano Sonata No. 21 in C Major, Op. 53, "Waldstein": II. Introduzione: Adagio molto
DR14 -1.81 dB -21.42 dB 9:40 03-Piano Sonata No. 21 in C Major, Op. 53, "Waldstein": III. Rondo: Allegretto moderato - Prestissimo
DR14 -0.06 dB -20.28 dB 9:10 04-Piano Sonata No. 23 in F Minor, Op. 57, "Appassionata": I. Allegro assai
DR15 -5.32 dB -25.76 dB 6:17 05-Piano Sonata No. 23 in F Minor, Op. 57, "Appassionata": II. Andante con moto
DR14 -0.27 dB -19.19 dB 5:20 06-Piano Sonata No. 23 in F Minor, Op. 57, "Appassionata": III. Allegro ma non troppo - Presto
DR14 -2.49 dB -23.60 dB 6:46 07-Piano Sonata No. 26 in E-Flat Major, Op. 81a, "Les adieux": I. Das Lebewohl: Adagio. Allegro
DR15 -5.22 dB -28.42 dB 4:01 08-Piano Sonata No. 26 in E-Flat Major, Op. 81a, "Les adieux": II. Abwesenheit: Andante espressivo
DR13 -1.88 dB -20.76 dB 5:22 09-Piano Sonata No. 26 in E-Flat Major, Op. 81a, "Les adieux": III. Das Wiedersehn: Vivacissimamente
DR13 -13.91 dB -32.47 dB 5:41 01-Piano Sonata No. 14 in C-Sharp Minor, Op. 27, No. 2, "Moonlight": I. Adagio sostenuto
DR13 -11.71 dB -29.56 dB 2:40 02-Piano Sonata No. 14 in C-Sharp Minor, Op. 27, No. 2, "Moonlight": II. Allegro
DR14 -0.31 dB -19.71 dB 7:16 03-Piano Sonata No. 14 in C-Sharp Minor, Op. 27, No. 2, "Moonlight": III. Presto
DR14 -1.20 dB -20.23 dB 8:07 04-Piano Sonata No. 4 in E-Flat Major, Op. 7: I. Allegro molto e con brio
DR17 -2.10 dB -28.23 dB 8:05 05-Piano Sonata No. 4 in E-Flat Major, Op. 7: II. Largo, con gran espressione
DR13 -4.23 dB -23.39 dB 5:15 06-Piano Sonata No. 4 in E-Flat Major, Op. 7: III. Allegro
DR14 -4.42 dB -22.65 dB 7:17 07-Piano Sonata No. 4 in E-Flat Major, Op. 7: IV. Rondo: Poco allegretto e grazioso
DR14 -1.45 dB -20.45 dB 7:25 08-Piano Sonata No. 11 in B-Flat Major, Op. 22: I. Allegro con brio
DR14 -9.70 dB -29.41 dB 6:59 09-Piano Sonata No. 11 in B-Flat Major, Op. 22: II. Adagio con molto espressione
DR13 -5.63 dB -22.74 dB 3:17 10-Piano Sonata No. 11 in B-Flat Major, Op. 22: III. Minuetto
DR15 -2.72 dB -23.04 dB 6:31 11-Piano Sonata No. 11 in B-Flat Major, Op. 22: IV. Rondo: Allegretto
DR13 -4.43 dB -23.01 dB 3:55 01-Piano Sonata No. 1 in F Minor, Op. 2, No. 1: I. Allegro
DR13 -7.29 dB -25.29 dB 4:45 02-Piano Sonata No. 1 in F Minor, Op. 2, No. 1: II. Adagio
DR11 -5.90 dB -23.09 dB 4:03 03-Piano Sonata No. 1 in F Minor, Op. 2, No. 1: III. Menuetto: Allegretto
DR12 -2.01 dB -19.65 dB 5:01 04-Piano Sonata No. 1 in F Minor, Op. 2, No. 1: IV. Prestissimo
DR13 -2.89 dB -21.32 dB 6:52 05-Piano Sonata No. 2 in A Major, Op. 2, No. 2: I. Allegro vivace
DR17 -0.86 dB -25.13 dB 6:19 06-Piano Sonata No. 2 in A Major, Op. 2, No. 2: II. Largo appassionato
DR14 -3.56 dB -22.65 dB 3:03 07-Piano Sonata No. 2 in A Major, Op. 2, No. 2: III. Scherzo: Allegretto - Trio
DR14 -0.26 dB -21.83 dB 7:10 08-Piano Sonata No. 2 in A Major, Op. 2, No. 2: IV. Rondo: Grazioso
DR13 -0.71 dB -19.48 dB 10:19 09-Piano Sonata No. 3 in C Major, Op. 2, No. 3: I. Allegro con brio
DR16 -5.28 dB -28.17 dB 7:06 10-Piano Sonata No. 3 in C Major, Op. 2, No. 3: II. Adagio
DR13 -4.98 dB -22.57 dB 3:16 11-Piano Sonata No. 3 in C Major, Op. 2, No. 3: III. Scherzo: Allegro - Trio
DR14 -3.32 dB -22.22 dB 5:31 12-Piano Sonata No. 3 in C Major, Op. 2, No. 3: IV. Allegro assai
DR15 -2.48 dB -24.10 dB 8:55 01-Piano Sonata No. 8 in C Minor, Op. 13, "Pathetique": I. Grave - Allegro di molto e con brio
DR15 -8.42 dB -30.36 dB 5:17 02-Piano Sonata No. 8 in C Minor, Op. 13, "Pathetique": II. Adagio cantabile
DR14 -3.22 dB -22.24 dB 4:52 03-Piano Sonata No. 8 in C Minor, Op. 13, "Pathetique": III. Rondo: Allegro
DR13 -0.84 dB -18.76 dB 5:35 04-Piano Sonata No. 5 in C Minor, Op. 10, No. 1: I. Molto allegro e con brio
DR15 -4.62 dB -25.31 dB 7:56 05-Piano Sonata No. 5 in C Minor, Op. 10, No. 1: II. Adagio molto
DR15 -1.15 dB -20.52 dB 4:30 06-Piano Sonata No. 5 in C Minor, Op. 10, No. 1: III. Finale: Prestissimo
DR13 -1.97 dB -19.87 dB 8:49 07-Piano Sonata No. 6 in F Major, Op. 10, No. 2: I. Allegro
DR13 -4.67 dB -23.12 dB 4:44 08-Piano Sonata No. 6 in F Major, Op. 10, No. 2: II. Allegretto
DR11 -1.44 dB -18.21 dB 4:07 09-Piano Sonata No. 6 in F Major, Op. 10, No. 2: III. Finale: Presto
DR13 -0.73 dB -18.59 dB 7:16 10-Piano Sonata No. 7 in D Major, Op. 10, No. 3: I. Presto
DR14 -0.79 dB -21.94 dB 9:19 11-Piano Sonata No. 7 in D Major, Op. 10, No. 3: II. Largo e mesto
DR13 -4.09 dB -20.46 dB 2:43 12-Piano Sonata No. 7 in D Major, Op. 10, No. 3: III. Menuetto - Trio - Menuetto: Allegro
DR13 -2.41 dB -19.78 dB 4:20 13-Piano Sonata No. 7 in D Major, Op. 10, No. 3: IV. Rondo: Allegro
DR13 -4.28 dB -22.40 dB 6:36 01-Piano Sonata No. 16 in G Major, Op. 31, No. 1: I. Allegro vivace
DR15 -6.35 dB -28.00 dB 11:52 02-Piano Sonata No. 16 in G Major, Op. 31, No. 1: II. Adagio grazioso
DR14 -2.65 dB -23.21 dB 7:16 03-Piano Sonata No. 16 in G Major, Op. 31, No. 1: III. Rondo allegretto
DR15 -0.14 dB -22.37 dB 9:04 04-Piano Sonata No. 17 in D Minor, Op. 31, No. 2, "Tempest": I. Lento - Allegro
DR15 -11.42 dB -31.52 dB 8:00 05-Piano Sonata No. 17 in D Minor, Op. 31, No. 2, "Tempest": II. Adagio
DR12 -3.49 dB -21.34 dB 6:41 06-Piano Sonata No. 17 in D Minor, Op. 31, No. 2, "Tempest": III. Allegretto
DR15 -4.01 dB -24.63 dB 7:52 07-Piano Sonata No. 18 in E-Flat Major, Op. 31, No. 3, "La Chasse": I. Allegro
DR18 -0.83 dB -25.69 dB 5:09 08-Piano Sonata No. 18 in E-Flat Major, Op. 31, No. 3, "La Chasse": II. Scherzo: Allegretto vivace
DR17 -4.03 dB -27.40 dB 4:30 09-Piano Sonata No. 18 in E-Flat Major, Op. 31, No. 3, "La Chasse": III. Minuet: Moderato e grazioso
DR14 -1.07 dB -21.60 dB 5:00 10-Piano Sonata No. 18 in E-Flat Major, Op. 31, No. 3, "La Chasse": IV. Presto con fuoco
DR14 -8.37 dB -26.72 dB 7:59 01-Piano Sonata No. 12 in A-Flat Major, Op. 26: I. Andante con variazioni
DR13 -3.27 dB -22.27 dB 2:43 02-Piano Sonata No. 12 in A-Flat Major, Op. 26: II. Scherzo: Molto allegro
DR15 -0.46 dB -22.77 dB 6:10 03-Piano Sonata No. 12 in A-Flat Major, Op. 26: III. Marcia funebre sulla morte d'un eroe
DR13 -1.36 dB -20.78 dB 3:42 04-Piano Sonata No. 12 in A-Flat Major, Op. 26: IV. Allegro
DR15 -3.48 dB -25.94 dB 5:02 05-Piano Sonata No. 13 in E-Flat Major, Op. 27, No. 1: I. Andante
DR11 -0.28 dB -20.86 dB 1:56 06-Piano Sonata No. 13 in E-Flat Major, Op. 27, No. 1: II. Allegro molto e vivace
DR13 -9.79 dB -29.18 dB 2:58 07-Piano Sonata No. 13 in E-Flat Major, Op. 27, No. 1: III. Adagio con espressione
DR14 -0.88 dB -20.73 dB 5:43 08-Piano Sonata No. 13 in E-Flat Major, Op. 27, No. 1: IV. Allegro vivace
DR14 -3.26 dB -23.37 dB 10:12 09-Piano Sonata No. 15 in D Major, Op. 28, "Pastoral": I. Allegro
DR14 -3.84 dB -26.18 dB 6:11 10-Piano Sonata No. 15 in D Major, Op. 28, "Pastoral": II. Andante
DR15 -2.39 dB -22.25 dB 2:23 11-Piano Sonata No. 15 in D Major, Op. 28, "Pastoral": III. Scherzo: Allegro vivace
DR13 -1.20 dB -20.52 dB 4:32 12-Piano Sonata No. 15 in D Major, Op. 28, "Pastoral": IV. Rondo: Allegro ma non troppo
DR14 -1.44 dB -22.21 dB 5:35 13-Piano Sonata No. 27 in E Minor, Op. 90: I. Mit lebhaftigkeit und durchaus mit Empfindung und Ausdruck
DR15 -5.70 dB -25.37 dB 7:41 14-Piano Sonata No. 27 in E Minor, Op. 90: II. Nicht zu geschwind und sehr singbar vorgetragen
DR14 -0.41 dB -19.92 dB 7:03 01-Piano Sonata No. 9 in E Major, Op. 14, No. 1: I. Allegro
DR13 -2.26 dB -20.96 dB 3:23 02-Piano Sonata No. 9 in E Major, Op. 14, No. 1: II. Allegretto
DR12 -2.63 dB -18.62 dB 3:16 03-Piano Sonata No. 9 in E Major, Op. 14, No. 1: III. Rondo: Allegro comodo
DR12 -2.23 dB -19.97 dB 7:00 04-Piano Sonata No. 10 in G Major, Op. 14, No. 2: I. Allegro
DR15 -2.42 dB -23.68 dB 5:54 05-Piano Sonata No. 10 in G Major, Op. 14, No. 2: II. Andante
DR13 -1.82 dB -19.74 dB 3:41 06-Piano Sonata No. 10 in G Major, Op. 14, No. 2: III. Scherzo: Allegro assai
DR15 -1.02 dB -22.94 dB 5:40 07-Piano Sonata No. 22 in F Major, Op. 54: I. In tempo d'un minuetto
DR13 -4.14 dB -21.99 dB 5:45 08-Piano Sonata No. 22 in F Major, Op. 54: II. Allegretto - Piu allegro
DR14 -2.63 dB -21.51 dB 4:05 09-Piano Sonata No. 19 in G Minor, Op. 49, No. 1: I. Andante
DR14 -2.19 dB -21.38 dB 3:49 10-Piano Sonata No. 19 in G Minor, Op. 49, No. 1: II. Rondo: Allegro
DR12 -3.36 dB -20.40 dB 4:18 11-Piano Sonata No. 20 in G Major, Op. 49, No. 2: I. Allegro ma non troppo
DR13 -4.33 dB -23.10 dB 3:26 12-Piano Sonata No. 20 in G Major, Op. 49, No. 2: II. Tempo di menuetto
DR13 -0.14 dB -19.41 dB 8:06 13-Piano Sonata No. 24 in F-Sharp Major, Op. 78: I. Adagio cantabile - Allegro ma non troppo
DR13 -1.42 dB -18.39 dB 3:19 14-Piano Sonata No. 24 in F-Sharp Major, Op. 78: II. Allegro vivace
DR12 -1.49 dB -18.08 dB 5:01 15-Piano Sonata No. 25 in G Major, Op. 79: I. Presto alla tedesca
DR12 -6.96 dB -25.40 dB 3:10 16-Piano Sonata No. 25 in G Major, Op. 79: II. Andante
DR13 -0.90 dB -19.40 dB 2:10 17-Piano Sonata No. 25 in G Major, Op. 79: III. Vivace
DR13 -0.59 dB -18.01 dB 11:12 01-Piano Sonata No. 29 in B-Flat Major, Op. 106, "Hammerklavier": I. Allegro
DR13 -1.01 dB -21.37 dB 2:42 02-Piano Sonata No. 29 in B-Flat Major, Op. 106, "Hammerklavier": II. Scherzo: Assai vivace - Presto - Tempo I
DR18 -2.11 dB -26.23 dB 15:53 03-Piano Sonata No. 29 in B-Flat Major, Op. 106, "Hammerklavier": III. Adagio sostenuto, appassionato e con molto sentimento
DR13 -0.66 dB -17.71 dB 11:36 04-Piano Sonata No. 29 in B-Flat Major, Op. 106, "Hammerklavier": IV. Largo - Allegro risoluto
DR14 -3.06 dB -24.97 dB 3:41 05-Piano Sonata No. 28 in A Major, Op. 101: I. Etwas lebhaft und mit der innigsten Empfindung
DR14 -0.66 dB -20.28 dB 5:46 06-Piano Sonata No. 28 in A Major, Op. 101: II. Lebhaft. Marschmassig
DR13 -3.35 dB -28.51 dB 2:27 07-Piano Sonata No. 28 in A Major, Op. 101: III. Langsam und sehnsuchtsvoll
DR14 -1.09 dB -20.55 dB 6:56 08-Piano Sonata No. 28 in A Major, Op. 101: IV. Geschwind, doch nicht zu sehr, und mit Entschlossenheit
DR13 -0.47 dB -18.61 dB 3:24 01-Piano Sonata No. 30 in E Major, Op. 109: I. Vivace ma non troppo
DR11 -0.58 dB -17.29 dB 2:23 02-Piano Sonata No. 30 in E Major, Op. 109: II. Prestissimo
DR12 -0.69 dB -19.78 dB 13:12 03-Piano Sonata No. 30 in E Major, Op. 109: III. Gesangvoll, mit innigster Empfindung: Andante molto cantabile ed espressivo
DR12 -2.78 dB -20.64 dB 6:24 04-Piano Sonata No. 31 in A-Flat Major, Op. 110: I. Moderato cantabile molto espressivo
DR12 -0.57 dB -17.06 dB 2:02 05-Piano Sonata No. 31 in A-Flat Major, Op. 110: II. Allegro molto
DR15 -5.38 dB -27.15 dB 3:39 06-Piano Sonata No. 31 in A-Flat Major, Op. 110: III. Adagio ma non troppo -
DR11 -0.34 dB -17.11 dB 6:35 07-Piano Sonata No. 31 in A-Flat Major, Op. 110: III. Fuga: Allegro ma non troppo
DR11 -0.40 dB -14.86 dB 9:45 08-Piano Sonata No. 32 in C Minor, Op. 111: I. Maestoso - Allegro con brio ed appassionato
DR12 -0.54 dB -19.16 dB 15:57 09-Piano Sonata No. 32 in C Minor, Op. 111: II. Arietta: Adagio molto semplice e cantabile
––––––––––––––––––––––––––––––––––––––––

Number of tracks: 103
Official DR value: DR14

Samplerate: 96000 Hz
Channels: 2
Bits per sample: 24
Bitrate: 2427 kbps
Codec: FLAC
================================================================================


Thanks to the Original customer!